Поиск

2020 Nat King Cole - Simply ... King Cole! {Jube Legends} [24-48]

2020 Nat King Cole - Simply ... King Cole! {Jube Legends} [24-48]
Стили:
Дата издания диска:
3 апреля 2020
Битрейт аудио:
lossless
Лог проверки качества
foobar2000 1.4.3 / Dynamic Range Meter 1.1.1
log date: 2021-03-30 18:43:14

--------------------------------------------------------------------------------
Analyzed: Abe Lyman / Simply ... King Cole! (2020 Remaster) (1)
          Al Dubin / Simply ... King Cole! (2020 Remaster) (2)
          Al Jolson / Simply ... King Cole! (2020 Remaster) (3)
          Al Sigman / Simply ... King Cole! (2020 Remaster) (4)
          Andy Razaf / Simply ... King Cole! (2020 Remaster) (5)
          Anna Sosenko / Simply ... King Cole! (2020 Remaster) (6)
          Bob Troupe / Simply ... King Cole! (2020 Remaster) (7-8)
          Buddy Feyne / Simply ... King Cole! (2020 Remaster) (9)
          Carl Sigman / Simply ... King Cole! (2020 Remaster) (10)
          Charles Pasquale / Simply ... King Cole! (2020 Remaster) (11)
          Cole Nat / Simply ... King Cole! (2020 Remaster) (12-17)
          Dick Manning / Simply ... King Cole! (2020 Remaster) (18)
          Don george / Simply ... King Cole! (2020 Remaster) (19)
          Eden Ahbez / Simply ... King Cole! (2020 Remaster) (20)
          Francis Henry / Simply ... King Cole! (2020 Remaster) (21)
          Francois Moseley / Simply ... King Cole! (2020 Remaster) (22)
          Frank Lavere / Simply ... King Cole! (2020 Remaster) (23)
          Fred E. Ahlert / Simply ... King Cole! (2020 Remaster) (24)
          Gus Kahn / Simply ... King Cole! (2020 Remaster) (25-26)
          Harold Adamson / Simply ... King Cole! (2020 Remaster) (27)
          Ira Gershwin / Simply ... King Cole! (2020 Remaster) (28)
          Irving Gordon / Simply ... King Cole! (2020 Remaster) (29)
          James Cavanaugh / Simply ... King Cole! (2020 Remaster) (30)
          Joe Burke / Simply ... King Cole! (2020 Remaster) (31)
          Joe Davis / Simply ... King Cole! (2020 Remaster) (32)
          Johnny Mercer / Simply ... King Cole! (2020 Remaster) (33)
          Milton Delugg / Simply ... King Cole! (2020 Remaster) (34)
          Mitchell Parish / Simply ... King Cole! (2020 Remaster) (35-36)
          Nat King Cole / Simply ... King Cole! (2020 Remaster) (37-38)
          Ray Ellington / Simply ... King Cole! (2020 Remaster) (39)
          Redd Evany / Simply ... King Cole! (2020 Remaster) (40)
          Reg Conelly / Simply ... King Cole! (2020 Remaster) (41)
          Sam H. Lewis / Simply ... King Cole! (2020 Remaster) (42)
          Sylvia Dee / Simply ... King Cole! (2020 Remaster) (43)
          William Best / Simply ... King Cole! (2020 Remaster) (44)
--------------------------------------------------------------------------------

DR         Peak         RMS     Duration Track
--------------------------------------------------------------------------------
DR12      -2.47 dB   -16.86 dB      2:34 30-What can I say after I say "I'm sorry"
DR12       0.00 dB   -14.80 dB      3:11 28-Twenty Million Sweethearts: I'll string along with you
DR12       0.00 dB   -14.73 dB      1:44 03-Avalon
DR10       0.00 dB   -14.22 dB      2:35 01-Answer me
DR12       0.00 dB   -14.39 dB      2:53 35-Gee, baby, ain't I good for you?
DR11       0.00 dB   -14.21 dB      2:49 22-Darling, je vous aime beaucoup
DR12       0.00 dB   -15.37 dB      2:46 13-Route 66
DR12       0.00 dB   -14.82 dB      2:59 36-Baby, Baby all the time
DR10       0.00 dB   -13.48 dB      2:50 14-Why?
DR13       0.00 dB   -17.06 dB      2:19 23-Paint yourself a rainbow
DR11       0.00 dB   -12.99 dB      2:38 04-Mucho, mucho, mucho
DR10       0.00 dB   -13.53 dB      2:59 25-Lilette
DR12      -1.32 dB   -15.71 dB      3:04 26-Can't see for lookin'
DR12       0.00 dB   -14.65 dB      2:19 27-Bring me another Drink
DR13       0.00 dB   -15.25 dB      2:45 33-I'm a shy guy
DR12       0.00 dB   -15.41 dB      2:49 38-If you can't smile and say yes
DR11       0.00 dB   -12.81 dB      2:23 44-Straighten up and fly
DR10       0.00 dB   -11.88 dB      2:28 02-Fascination
DR11       0.00 dB   -13.02 dB      2:58 16-Calypso Blues
DR11       0.00 dB   -14.57 dB      2:51 19-Nature boy
DR10       0.00 dB   -11.93 dB      2:23 37-Little girl
DR10       0.00 dB   -12.60 dB      2:09 21-Give me your love
DR9        0.00 dB   -11.83 dB      2:42 08-Pretend
DR11       0.00 dB   -12.61 dB      2:37 12-Walking my baby back home
DR11       0.00 dB   -13.58 dB      2:30 39-Whoopee: Makin' whoopee
DR11       0.00 dB   -13.67 dB      2:56 43-I'm thru with love
DR9        0.00 dB   -11.95 dB      2:31 18-Around the world in 80 days
DR14       0.00 dB   -16.92 dB      3:22 20-Girl Crazy: Embraceable you
DR10       0.00 dB   -13.56 dB      3:10 05-Unforgettable
DR12       0.00 dB   -13.70 dB      2:48 40-You're nobody till somebody loves you
DR11       0.00 dB   -13.63 dB      2:22 24-This Is my night do dream
DR12       0.00 dB   -14.67 dB      2:43 06-Quizas, quizas, quizas
DR12       0.00 dB   -13.94 dB      2:32 31-Ready, Willing and Able: Too marvelous for words
DR12       0.00 dB   -15.58 dB      2:30 10-Orange colored sky
DR11       0.00 dB   -13.44 dB      3:13 07-Stardust
DR11       0.00 dB   -13.11 dB      3:09 32-Sweet Lorraine
DR11       0.00 dB   -15.04 dB      3:13 11-Mona Lisa
DR10       0.00 dB   -12.51 dB      2:48 17-Madrid
DR14       0.00 dB   -15.73 dB      2:10 09-That's my girl
DR12       0.00 dB   -13.83 dB      3:09 29-The Frim-Fram-Sauce
DR10       0.00 dB   -13.44 dB      3:03 42-If I had you
DR10       0.00 dB   -14.22 dB      2:58 41-For all we know
DR9        0.00 dB   -11.05 dB      3:10 15-Too young
DR11       0.00 dB   -14.46 dB      2:50 34-I love you for sentimental reasons
--------------------------------------------------------------------------------

Number of tracks:  44
Official DR value: DR11

Samplerate:        48000 Hz
Channels:          2
Bits per sample:   24
Bitrate:           697 kbps
Codec:             FLAC
================================================================================
No seeders - write personal message to M0p94ok. Any questions - support@pro-jazz.com.
Нет сидеров - пишите в личку M0p94ok. Есть вопросы - support@pro-jazz.com
16:43
70
Нет комментариев. Ваш будет первым!