Вы используете незарегистрированную версию компонента "Вкладки"!

Поиск

1955 Terry Pollard - Terry Pollard (2019) {RevOla} [24-44.1]

1955 Terry Pollard - Terry Pollard (2019) {RevOla} [24-44.1]
Стили:
Дата записи диска:
1 января 1955
Место записи:
Los Angeles, CA, USA
Дата переиздания диска:
3 июля 2019
Издатель (лейбл):
Носитель:
WEB
Формат:
PCM
Тип рипа:
tracks
Контейнер:
FLAC (*.flac)
Количество каналов:
2.0
Разрядность/ЧД:
24/44,1
Битрейт аудио:
lossless
Время звучания:
00:33:36
Наличие сканов:
только обложка
Страна-производитель диска (релиза):
USA
Релизёр (источник):
M0p94ok
Лог проверки качества
foobar2000 1.6.2 / Dynamic Range Meter 1.1.1
log date: 2021-06-21 14:12:48

--------------------------------------------------------------------------------
Analyzed: Terry Pollard / Terry Pollard
--------------------------------------------------------------------------------

DR         Peak         RMS     Duration Track
--------------------------------------------------------------------------------
DR9       -0.15 dB   -10.53 dB      3:50 01-Fedi (Remastered)
DR10      -0.15 dB   -10.90 dB      6:03 02-Autumn Serenade (Remastered)
DR10      -0.15 dB   -12.85 dB      3:57 03-Laura (Remastered)
DR9       -0.15 dB   -10.27 dB      3:12 04-Where or When? (Remastered)
DR9       -0.15 dB   -10.62 dB      5:11 05-Scrapple From The Apple (Remastered)
DR11      -0.15 dB   -12.83 dB      3:45 06-Emaline (Remastered)
DR10      -0.15 dB   -13.38 dB      4:20 07-The More I See You (Remastered)
DR9       -0.15 dB   -10.38 dB      3:21 08-Almost Like Being in Love (Remastered)
--------------------------------------------------------------------------------

Number of tracks:  8
Official DR value: DR10

Samplerate:        44100 Hz
Channels:          2
Bits per sample:   24
Bitrate:           1310 kbps
Codec:             FLAC
================================================================================
Any questions - support@pro-jazz.com. Есть вопросы - support@pro-jazz.com
14:57
101
Нет комментариев. Ваш будет первым!