Поиск

2016 Florian Favre Trio - Ur {Traumton} [24-44.1]

2016 Florian Favre Trio - Ur {Traumton} [24-44.1]
Стили:
Дата издания диска:
8 апреля 2016
Битрейт аудио:
lossless
Доп. инфо:

Формат записи/Источник записи: [TR24][OF]
Наличие водяных знаков: Нет
Год издания/переиздания диска: 2016
Издатель (лейбл): Traumton
Продолжительность: 00:46:23
Наличие сканов в содержимом раздачи: Только обложка альбома
Источник (релизер): qobuz

Контейнер: FLAC (*.flac)
Тип рипа: tracks
Разрядность: 24/44,1
Формат: PCM
Количество каналов: 2.0

Лог проверки качества
foobar2000 1.1.15 / Dynamic Range Meter 1.1.1
log date: 2021-03-26 17:47:12

--------------------------------------------------------------------------------
Analyzed: Florian Favre Trio / Ur
--------------------------------------------------------------------------------

DR         Peak         RMS     Duration Track
--------------------------------------------------------------------------------
DR10      -0.52 dB   -13.49 dB      5:57 01-Ur
DR12      -0.52 dB   -15.35 dB      4:46 02-Mister Taylor
DR9       -0.52 dB   -11.12 dB      3:23 03-Indie
DR12      -0.52 dB   -16.36 dB      5:28 04-Million Miles Away
DR10      -0.52 dB   -13.90 dB      6:33 05-Cobble Hill
DR11      -0.52 dB   -14.54 dB      6:01 06-Synergie
DR10      -0.52 dB   -12.83 dB      3:39 07-Hyperactivité Nocturne
DR11      -0.52 dB   -15.16 dB      6:21 08-Satellite
DR11      -0.52 dB   -14.75 dB      4:15 09-Oh Lord!
--------------------------------------------------------------------------------

Number of tracks:  9
Official DR value: DR11

Samplerate:        44100 Hz
Channels:          2
Bits per sample:   24
Bitrate:           1512 kbps
Codec:             FLAC
================================================================================
No seeders - write personal message to M0p94ok. Any questions - support@pro-jazz.com.
Нет сидеров - пишите в личку M0p94ok. Есть вопросы - support@pro-jazz.com
13:59
59
Нет комментариев. Ваш будет первым!