Поиск

2021 David Walters (feat. Vincent Segal, Ballake Sissoko, Roger Raspail) - Nocturne {Heavenly Sweetness} [24-48]

2021 David Walters (feat. Vincent Segal, Ballake Sissoko, Roger Raspail) - Nocturne {Heavenly Sweetness} [24-48]
Дата издания диска:
5 февраля 2021
Битрейт аудио:
lossless
Доп. инфо:

Формат записи/Источник записи: [TR24][OF]
Наличие водяных знаков: Нет
Год издания/переиздания диска: 2021
Издатель (лейбл): Heavenly Sweetness
Продолжительность: 00:51:42
Наличие сканов в содержимом раздачи: Нет

Контейнер: FLAC (*.flac)
Тип рипа: tracks
Разрядность: 24/48
Формат: LPCM
Количество каналов: 2.0

Лог проверки качества
foobar2000 1.4.6 / Замер динамического диапазона (DR) 1.1.1
Дата отчёта:  2021-04-02 09:58:09

--------------------------------------------------------------------------------
Анализ:   David Walters / Nocturne
--------------------------------------------------------------------------------

DR         Пики         RMS           Продолжительность трека
--------------------------------------------------------------------------------
DR6        0.00 дБ    -8.09 дБ      5:49 01-Papa Kossa
DR8        0.00 дБ    -9.32 дБ      4:12 02-Carioca
DR5        0.00 дБ    -6.57 дБ      4:10 03-Freedom
DR7        0.00 дБ    -9.49 дБ      5:21 04-Manvè (Unplugged Version)
DR7        0.00 дБ    -8.20 дБ      4:19 05-Sam Cook Di
DR6        0.00 дБ    -7.98 дБ      7:17 06-Sa En Vé
DR9        0.00 дБ   -10.43 дБ      5:49 07-Baby Go
DR11      -0.01 дБ   -13.70 дБ      0:25 08-Interlude
DR7        0.00 дБ    -8.27 дБ      5:11 09-Mama (Unplugged Version)
DR7        0.00 дБ    -8.40 дБ      5:28 10-Vansé
DR7        0.00 дБ    -9.07 дБ      4:39 11-Nocturne
--------------------------------------------------------------------------------

Количество треков: 11
Реальные значения DR: DR7

Частота:   48000 Гц
Каналов:   2
Разрядность:   24
Битрейт:   1674 кбит/с
Кодек:   FLAC
================================================================================
No seeders - write personal message to M0p94ok. Any questions - support@pro-jazz.com.
Нет сидеров - пишите в личку M0p94ok. Есть вопросы - support@pro-jazz.com
12:17
59
Нет комментариев. Ваш будет первым!