Поиск

2019 Saab Guitar Project - Saab Guitar Project {SGP} [24-44.1]

2019 Saab Guitar Project - Saab Guitar Project {SGP} [24-44.1]
Стили:
Дата издания диска:
31 июля 2019
Носитель:
WEB
Формат:
PCM
Тип рипа:
tracks
Контейнер:
FLAC (*.flac)
Количество каналов:
2.0
Разрядность/ЧД:
24/44,1
Битрейт аудио:
lossless
Время звучания:
00:40:41
Наличие сканов:
только обложка
Страна-производитель диска (релиза):
USA
Релизёр (источник):
M0p94ok
Лог проверки качества
foobar2000 1.6.2 / Dynamic Range Meter 1.1.1
log date: 2021-06-21 11:21:01

--------------------------------------------------------------------------------
Analyzed: Saab Guitar Project / Saab Guitar Project
--------------------------------------------------------------------------------

DR         Peak         RMS     Duration Track
--------------------------------------------------------------------------------
DR9        0.00 dB   -10.54 dB      3:32 01-Holy Tone
DR9        0.00 dB   -11.20 dB      6:10 02-Police
DR9        0.00 dB   -11.39 dB      5:02 03-Funky Motel
DR8        0.00 dB    -9.67 dB      6:50 04-Friends
DR10       0.00 dB   -11.92 dB      4:51 05-Latin Heart
DR8        0.00 dB    -9.97 dB      4:54 06-The Hammer Colaiuta Saab Jam
DR7        0.00 dB    -8.88 dB      4:45 07-77 Sunrise
DR8        0.00 dB    -9.62 dB      4:42 08-So What
--------------------------------------------------------------------------------

Number of tracks:  8
Official DR value: DR9

Samplerate:        44100 Hz
Channels:          2
Bits per sample:   24
Bitrate:           1626 kbps
Codec:             FLAC
================================================================================
No seeders - write personal message to M0p94ok. Any questions - support@pro-jazz.com.
Нет сидеров - пишите в личку M0p94ok. Есть вопросы - support@pro-jazz.com
11:33
63
Нет комментариев. Ваш будет первым!