Поиск

1976 Wild Bill Davison, Bob Wilber, Eddie Hubble, Ralph Sutton, Isla Eckinger & Cliff Leeman - The Chicago Jazz Giants Live! (2017) {MPS} [24-88.2]

1976 Wild Bill Davison, Bob Wilber, Eddie Hubble, Ralph Sutton, Isla Eckinger & Cliff Leeman - The Chicago Jazz Giants Live! (2017) {MPS} [24-88.2]
Дата записи диска:
10 мая - 11 мая 1976
Место записи:
"Theater am Ring", Villingen
Битрейт аудио:
lossless
Доп. инфо:

Превосходный чикагский джаз в исполнении поколения музыкантов, которые выросли, вдыхая свежую музыку, которую «Сатчмо», «Фата», «Бикс» и их банды выдували в Городе ветров. Когда перед его именем добавлено слово «Wild», понятно, что музыка трубача Билла Дэвисона будет горячей. Дикий Билл был наиболее известен своей работой с иконами традиционного джаза Эдди Кондоном, Пи Ви Расселом и классическими записями Билла с Сидни Беше. Критик Ричард Судхалтер сказал об игре Дикого Билла: «С яростным, раскованным способом атаковать ритм… музыка исходит как из огнемета…» Саксофонист-кларнетист Боб Уилбер был также выпускник Кондона и протеже Беше; тромбонист Эдди Хаббл играл с Кондоном и Маггси Спаньером, пианист Ральф Саттон выступал в качестве помощника с Пинатсом Хакко, Джеком Тигарденом и Кондоном. Известный как «Mr. Time », барабанщик Клифф Лиман оставил ритм для некоторых из величайших свинговых групп того времени, включая Арти Шоу, Томми Дорси и, конечно же, он также играл с Кондоном. Уилбер, Хаббл, Саттон и Лиман были участниками сенсационного величайшего джазового оркестра мира. «Дитя» группы и единственный неамериканский швейцарский басист Исла Икингер играла с Оскаром Кляйном, Беном Вебстером и Мэлом Уолдроном. Такие произведения, как W.C. «Оле мисс Рэг» и «Биль-стрит» Хэнди, а также классика «Когда ты улыбаешься», «Пока я жив» и блюз «Моя непослушная сладость даёт мне» сочетают в себе заразительную радость ансамблевой игры в орлеанском стиле и захватывающие виртуозные соло. New City Ditty представляет своего композитора Боба Уилбера на сопрано с ритм-секцией, а Уилбер снимает шляпу перед своим кумиром Сиднеем Биче. Ходячая баллада Blue Again включает твердое душевное соло Дэвисона. В финальной версии Саттон изображен в одиночестве, демонстрируя свои сильные корни в фильмах «Спасибо на миллион» и «Ain’t Misbehavin» Фэтса Уоллера. Веселая, энергичная классика в исполнении музыкантов, которые жили этой музыкой. Один из лучших джазов в чикагском стиле второго поколения, который можно услышать где угодно.

Формат записи/Источник записи: [TR24][OF]
Издание: Remastered
Год издания/переиздания диска: 1976/2017
Продолжительность: 00:48:58
Наличие сканов в содержимом раздачи: Нет

Контейнер: FLAC (*.flac)
Тип рипа: tracks
Разрядность: 24/88,2
Количество каналов: 2.0

Источник (релизер): HIGHRESAUDIO

Лог проверки качества
foobar2000 1.4.3 / Dynamic Range Meter 1.1.1
log date: 2021-03-27 16:28:54

--------------------------------------------------------------------------------
Analyzed: Isla Eckinger / The Chicago Jazz Giants Live! (1-4)
          Wild Bill Davison, Bob Wilber, Eddie Hubble, Ralph Sutton, Isla Eckinger & Cliff Leeman / The Chicago Jazz Giants Live! (5-8)
--------------------------------------------------------------------------------

DR         Peak         RMS     Duration Track
--------------------------------------------------------------------------------
DR11      -0.71 dB   -15.34 dB      6:40 01-Ole Miss Rag  (Live)
DR9       -2.59 dB   -16.13 dB      4:55 03-New City Ditty  (Live)
DR12      -1.29 dB   -17.15 dB      6:56 05-Blues My Naughty Sweety Gives Me  (Live)
DR11      -1.70 dB   -16.54 dB      5:31 06-Beale Street Blues  (Live)
DR11      -1.35 dB   -15.41 dB      7:15 02-When You're Smiling  (Live)
DR11      -1.51 dB   -17.10 dB      6:19 04-As Long as I Live
DR11      -2.32 dB   -17.89 dB      3:47 07-Blue Again  (Live)
DR12      -3.85 dB   -19.25 dB      7:38 08-Piano Medley (Thanks a Million/Ain't Misbehavin')  (Live)
--------------------------------------------------------------------------------

Number of tracks:  8
Official DR value: DR11

Samplerate:        88200 Hz
Channels:          2
Bits per sample:   24
Bitrate:           2509 kbps
Codec:             FLAC
================================================================================
No seeders - write personal message to M0p94ok. Any questions - support@pro-jazz.com.
Нет сидеров - пишите в личку M0p94ok. Есть вопросы - support@pro-jazz.com
11:14
51
Нет комментариев. Ваш будет первым!