Поиск

2016 Raphaël Imbert & Co - Music Is My Home: Act 1 (Extended) {Jazz Village} [24-44.1]

2016 Raphaël Imbert & Co - Music Is My Home: Act 1 (Extended) {Jazz Village} [24-44.1]
Стили:
Дата издания диска:
22 января 2016
Издатель (лейбл):
Номер по каталогу:
JV 570090
Носитель:
WEB
Формат:
PCM
Тип рипа:
tracks
Контейнер:
FLAC (*.flac)
Количество каналов:
2.0
Разрядность/ЧД:
24/44,1
Битрейт аудио:
lossless
Время звучания:
01:05:24
Наличие сканов:
только обложка
Страна-производитель диска (релиза):
USA
Релизёр (источник):
M0p94ok
Доп. инфо:

Наряду с культовыми американскими музыкантами - Биг Роном Хантером, Алабама Слим, Лейлой МакКаллой, Сарой Кинтана ... и молодыми французскими артистами, в основном из Compagnie Nine Spirit, саксофонист внезапно превращается в этно-музыковеда, унося нас в путешествие в Америку. «Глубокий Юг». Обладая уникальным пониманием ритма, он переносит нас в самое сердце креольского языка и в текущее состояние наших постоянно развивающихся устных культур. Он также рассматривает нашу связь с блюзом, джазом и наши корни в игривом и оригинальном приключении. Он выражает личный опыт и музыкальные контакты в гармонии с этой плодородной музыкальной почвой. В этом весь смысл импровизированного музыкального приветствия, обновленного здесь, в Music is My Home.

Популярный манифест! «Джаз - это правило, блюз - инструмент, а свинг - очевидная вещь!» Вначале я думал использовать эту заповедь как лозунг: «свинг как доказательство». Но дословный английский перевод «доказательства», казалось, имел слишком много юридического оттенка.

Однако, если поразмыслить, «доказательство» в его общепринятом английском смысле также уместно. Свинг - это свидетельство, доказательство того, что происходит в американских музыкальных стилях, от Пола Робсона до Леонарда Бернстайна, через Джона Колтрейна, Билла Монро и Эминема. Музыкальные стили, демонстрирующие мощь музыкальной революции, которую мы называем «джаз», «блюз» или «Американа», и которые на протяжении двух столетий потрясали западную музыкальную культуру до самых основ. Трясется, но не вызывает затруднений. Джаз не ставит под сомнение основы академических знаний ни в самом начале, ни в настоящее время. …

https://www.highresaudio.com/de/album/view/jspozi/raphal-imbert-music-is-my-home-act-1

Лог проверки качества
foobar2000 1.3.16 / Dynamic Range Meter 1.1.1
log date: 2018-03-11 16:57:39

--------------------------------------------------------------------------------
Analyzed: Raphael Imbert / Music Is My Home: Act 1
--------------------------------------------------------------------------------

DR         Peak         RMS     Duration Track
--------------------------------------------------------------------------------
DR10      -0.08 dB   -12.78 dB      4:06 01-MLK Blues
DR10      -1.48 dB   -16.62 dB      3:19 02-Black Atlantic
DR11      -0.68 dB   -16.29 dB      7:01 03-The Mighty Flood
DR11      -0.60 dB   -12.74 dB      5:18 04-Going For Myself
DR10      -1.50 dB   -14.48 dB      2:46 05-Weeping Willow Blues
DR12      -1.85 dB   -18.95 dB      5:40 06-Please, Don’t Leave Me
DR8       -1.96 dB   -12.62 dB      5:24 07-Make That Guitar Talk
DR13      -2.57 dB   -18.77 dB      3:13 08-La Coulée Rodair
DR12      -0.10 dB   -17.12 dB      5:03 09-Help Me Lord
DR10      -0.10 dB   -12.05 dB      4:27 10-Sweat River Blues
DR11      -1.40 dB   -15.25 dB      3:24 11-Music is my Home
DR6       -5.26 dB   -16.19 dB      3:08 12-Just A Closer Walk With Thee
DR12      -0.11 dB   -16.56 dB      6:25 13-Po Boy
DR9        0.00 dB   -10.59 dB      3:33 14-Going For Myself (radio edit) (Bonus Track)
DR9        0.00 dB    -9.96 dB      2:44 15-Sweat River Blues (radio edit) (Bonus Track)
--------------------------------------------------------------------------------

Number of tracks:  15
Official DR value: DR10

Samplerate:        44100 Hz
Channels:          2
Bits per sample:   24
Bitrate:           1418 kbps
Codec:             FLAC
================================================================================
No seeders - write personal message to M0p94ok. Any questions - support@pro-jazz.com.
Нет сидеров - пишите в личку M0p94ok. Есть вопросы - support@pro-jazz.com
21:51
59
Нет комментариев. Ваш будет первым!