Поиск

1971 James Moody & Al Cohn - Too Heavy for Words (2017) {MPS} [24-88.2]

1971 James Moody & Al Cohn - Too Heavy for Words (2017) {MPS} [24-88.2]
Стили:
Дата записи диска:
12 августа 1971
Дата переиздания диска:
15 декабря 2017
Издатель (лейбл):
Битрейт аудио:
lossless

01 - East of the Sun 06:25
02 - Vezzioso 08:55
03 - Good Bait 07:00
04 - Wee Dot 10:30
05 - The Underdog 04:53
06 - Mr. George 07:09

Состав:
  • Don Schlitten, producer
  • James Moody, tenor saxophone
  • Al Cohn, tenor saxophone
  • Roy Brooks, drums
  • Barry Harris, piano
  • Paul Goodman, engineer
  • Ira Gitler, liner notes
Лог проверки качества
foobar2000 1.4.3 / Dynamic Range Meter 1.1.1
log date: 2021-03-23 18:07:50

--------------------------------------------------------------------------------
Analyzed: James Moody / Too Heavy for Words
--------------------------------------------------------------------------------

DR         Peak         RMS     Duration Track
--------------------------------------------------------------------------------
DR12      -2.66 dB   -17.22 dB      6:26 01-East of the Sun
DR14      -5.78 dB   -21.97 dB      8:55 02-Vezzioso
DR15      -1.36 dB   -19.44 dB      7:00 03-Good Bait
DR14      -2.60 dB   -18.43 dB     10:31 04-Wee Dot
DR14      -3.07 dB   -21.06 dB      4:54 05-The Underdog
DR14      -2.30 dB   -18.98 dB      7:09 06-Mr. George
--------------------------------------------------------------------------------

Number of tracks:  6
Official DR value: DR14

Samplerate:        88200 Hz
Channels:          2
Bits per sample:   24
Bitrate:           2652 kbps
Codec:             FLAC
================================================================================
21:07
693
Нет комментариев. Ваш будет первым!