Поиск

2019 Q'd Up - Zagranitsa- Mystical Wonderland {Tantara} [24-48]

2019 Q'd Up - Zagranitsa- Mystical Wonderland {Tantara} [24-48]
Стили:
Дата издания диска:
20 сентября 2019
Носитель:
WEB
Формат:
PCM
Тип рипа:
tracks
Контейнер:
FLAC (*.flac)
Количество каналов:
2.0
Разрядность/ЧД:
24/48
Битрейт аудио:
lossless
Время звучания:
01:16:41
Наличие сканов:
буклет pdf
Страна-производитель диска (релиза):
USA
Доп. инфо:

Этот альбом включает музыку, вдохновленную и исполненную во время концертного тура Q'd Up и нескольких студентов BYU по пяти городам России осенью 2017 года. Q'd Up обладает уникальным и заразительным звуком, который является продуктом личностей исполнителей, аранжировки и композиции Стива Линдемана, Джея Лоуренса и Келли Эйзенхур, смесь самых разных звуков и стилей, проистекающая из впечатляющей универсальности каждого из участников группы, а также энергии и синергии, которые приходят с любовью к музыку и друг друга. Q’d Up существует в различных воплощениях с 1983 года и зарекомендовал себя как музыкальная сила в Юте и на Западе.

В центре внимания этой записи музыка, вдохновленная и исполненная во время концертного тура, который Q'd Up удалось провести осенью 2017 года по пяти российским городам. С помощью и работы Артема Чиркова, одного из близких коллег Эрика по басу. в Санкт-Петербурге был организован двухнедельный тур в Санкт-Петербург, Казань, Чебоксары, Нижний Новгород и Москву, где Q'd Up выступали в различных концертных залах, давали мастер-классы и наслаждались местами. Их сопровождали трое студентов BYU - Стивен Харди на саксофоне, Джозеф Палмер на трубе и Дэниел Берт на тромбоне - и эти прекрасные молодые музыканты появляются в качестве приглашенных артистов на этом компакт-диске (с Нельсеном Кэмпбеллом, заменяющим Берта на тромбоне). Результатом этого невероятного опыта стало создание четырех оригинальных мелодий группы: «Досведаня, Чебоксары» Эрика, «Swingin 'in Kazan» Рона, «Час пик в Москве» Джея и «Заграница» Стива. на этом компакт-диске. Восемь других мелодий - некоторые из которых также были сыграны в туре - с сессиями записи, завершающими наше путешествие по России, завершают этот альбом.

https://www.prostudiomasters.com/album/page/42168

https://www.e-onkyo.com/music/album/nxa714861019728/

https://www.highresaudio.com/en/album/view/g9bqis/q-d-up-zagranitsa-mystical-wonderland

 

Лог проверки качества
foobar2000 1.6.2 / Dynamic Range Meter 1.1.1
log date: 2021-06-20 18:49:08

--------------------------------------------------------------------------------
Analyzed: Q'd Up / Zagranitsa: Mystical Wonderland
--------------------------------------------------------------------------------

DR         Peak         RMS     Duration Track
--------------------------------------------------------------------------------
DR10      -0.20 dB   -11.79 dB      5:19 01-Swingin' in Kazan
DR9       -0.20 dB   -11.72 dB      7:45 02-Snowdrift
DR8       -0.20 dB   -10.41 dB      8:26 03-Take Me With You
DR11      -0.20 dB   -13.21 dB      7:21 04-Zagranitsa (Mystical Wonderland)
DR9       -0.20 dB   -11.14 dB      6:49 05-Dosvedanya, Cheboksary
DR9       -0.20 dB   -12.12 dB      7:29 06-Q'd e Pi
DR8       -0.20 dB   -10.05 dB      4:14 07-East of the Sun (And West of the Moon)
DR9       -0.10 dB   -11.54 dB      7:14 08-Rush Hour in Moscow
DR10      -0.20 dB   -12.97 dB      7:30 09-Scarlett Cherry Blossom
DR9       -0.20 dB   -11.24 dB      7:25 10-Cliff Notes
DR9       -0.20 dB   -10.59 dB      7:13 11-Quad Mekanix
--------------------------------------------------------------------------------

Number of tracks:  11
Official DR value: DR9

Samplerate:        48000 Hz
Channels:          2
Bits per sample:   24
Bitrate:           2308 kbps
Codec:             FLAC
================================================================================
No seeders - write personal message to M0p94ok. Any questions - support@pro-jazz.com.
Нет сидеров - пишите в личку M0p94ok. Есть вопросы - support@pro-jazz.com
19:26
59
Нет комментариев. Ваш будет первым!