Поиск

1957 Louis Armstrong and the All Stars - Live at the Orpheum Theater, Los Angeles (2021) {JPK} [24-48]

1957 Louis Armstrong and the All Stars - Live at the Orpheum Theater, Los Angeles (2021) {JPK} [24-48]
Дата записи диска:
16 октября 1957
Место записи:
Orpheum Theatre, Los Angeles, CA
Дата переиздания диска:
5 марта 2021
Битрейт аудио:
lossless
Доп. инфо:

Формат записи/Источник записи: [TR24][OF]
Издание: Remastered
Год издания/переиздания диска: 1957/2021
Продолжительность: 01:05:49
Наличие сканов в содержимом раздачи: Нет

Контейнер: FLAC (*.flac)
Тип рипа: tracks
Разрядность: 24/48
Количество каналов: 2.0

Источник (релизер): HIGHRESAUDIO

Лог проверки качества
foobar2000 1.4.3 / Dynamic Range Meter 1.1.1
log date: 2021-03-13 13:12:50

--------------------------------------------------------------------------------
Analyzed: Louis Armstrong / Louis Armstrong: Live at the Orpheum Theater, Los Angeles (2021 Remaster)
--------------------------------------------------------------------------------

DR         Peak         RMS     Duration Track
--------------------------------------------------------------------------------
DR12       0.00 dB   -14.71 dB      4:38 01-I love Jazz
DR12       0.00 dB   -14.60 dB      3:12 02-High Society Calypso
DR14      -0.05 dB   -19.72 dB      4:43 03-Ole Miss Rag
DR11       0.00 dB   -13.31 dB      4:07 04-Blue Moon
DR11       0.00 dB   -13.97 dB      1:49 05-Blues
DR12       0.00 dB   -13.96 dB      4:16 06-Sweet Georgia Brown
DR10       0.00 dB   -13.51 dB      2:56 07-Tenderly
DR11       0.00 dB   -12.80 dB      3:30 08-Mack the Knife
DR11      -3.54 dB   -17.21 dB      3:10 09-You'll never walk alone
DR12       0.00 dB   -15.40 dB      5:40 10-Baby, It Is cold outside
DR12       0.00 dB   -13.52 dB      1:53 11-When It's Sleepy Time Down South
DR11       0.00 dB   -13.51 dB      4:20 12-Mahogany Hall Stomp
DR12       0.00 dB   -13.49 dB      2:44 13-C'est si bon
DR12       0.00 dB   -15.42 dB      4:27 14-La Vie en rose
DR11       0.00 dB   -12.74 dB      3:33 15-All of me
DR12       0.00 dB   -14.34 dB      6:52 16-St. Louis Blues
DR11       0.00 dB   -13.64 dB      4:39 17-Rockin' Chair
--------------------------------------------------------------------------------

Number of tracks:  17
Official DR value: DR12

Samplerate:        48000 Hz
Channels:          2
Bits per sample:   24
Bitrate:           1604 kbps
Codec:             FLAC
================================================================================
No seeders - write personal message to M0p94ok. Any questions - support@pro-jazz.com.
Нет сидеров - пишите в личку M0p94ok. Есть вопросы - support@pro-jazz.com
15:48
78
Нет комментариев. Ваш будет первым!