Поиск

1978 Francy Boland - 3. White Heat (2017) {MPS} [24-88.2]

1978 Francy Boland - 3. White Heat (2017) {MPS} [24-88.2]
Стили:
Дата записи диска:
12 января - 16 января 1976
Место записи:
Studio Cornet, Cologne, Germany
Дата издания диска:
17 апреля 1978
Дата переиздания диска:
15 декабря 2017
Издатель (лейбл):
Битрейт аудио:
lossless

Треклист:

01 - Daffodils 05:23
02 - Everything I Have Is Yours 09:14
03 - As Long as There Is Music 04:39
04 - Narghileh 06:24
05 - East of the Sun 06:58
06 - A Gal in Calico 05:29

Состав:
  • Tony Coealto saxophone, clarinet, soprano saxophone, tenor saxophone
  • Sahib Shihab, baritone saxophone, flute, soprano saxophone
  • Ron Mathewson, bass
  • Francy Boland, conductor, piano, mellophone
  • Kenny Clare, drums
  • Heinz Kretzschmar, flute, clarinet
  • Kurt Aderhold, flute, clarinet
  • Christoph Brandt-Lindbaum, french horn
  • Konrad Alfing, french horn
  • Peter Ludes, french horn
  • Tom Baken, french horn
  • Ronnie Scott, tenor saxophone
  • Stan Robinson, tenor saxophone, clarinet, flute, soprano saxophone
  • Sal Nistico, tenor Saxophone, flute, clarinet
  • Bob Burgess, trombone
  • Eric Van Lier, trombone
  • Frank Rosolino, trombone
  • Net Peck, trombone
  • Benny Baileytrumpet, flugelhorn
  • Dusko Gojkovic, trumpet, flugelhorn
  • Janot Morales, trumpet, flugelhorn
  • Kenny Wheeler, trumpet, flugelhorn
  • Milo Pavlovic, trumpet, flugelhorn
  • Sadi, vibraphone, percussion
  • Produced by Gigi Campi
Лог проверки качества
foobar2000 1.4.3 / Dynamic Range Meter 1.1.1
log date: 2021-03-24 18:46:27

--------------------------------------------------------------------------------
Analyzed: Francy Boland / 3. White Heat
--------------------------------------------------------------------------------

DR         Peak         RMS     Duration Track
--------------------------------------------------------------------------------
DR12      -1.78 dB   -16.83 dB      5:23 01-Daffodils
DR12      -2.33 dB   -17.90 dB      9:14 02-Everything I Have Is Yours
DR12      -1.06 dB   -16.73 dB      4:39 03-As Long as There Is Music
DR13      -2.19 dB   -17.92 dB      6:25 04-Narghileh
DR12      -2.41 dB   -16.77 dB      6:58 05-East of the Sun
DR12      -0.84 dB   -16.36 dB      5:30 06-A Gal in Calico
--------------------------------------------------------------------------------

Number of tracks:  6
Official DR value: DR12

Samplerate:        88200 Hz
Channels:          2
Bits per sample:   24
Bitrate:           2676 kbps
Codec:             FLAC
================================================================================
14:57
651
Нет комментариев. Ваш будет первым!