Поиск

2020 Pasquale Grasso - Solo Bud Powell {Okeh, Sony Masterworks} [24-96]

2020 Pasquale Grasso - Solo Bud Powell {Okeh, Sony Masterworks} [24-96]
Дата издания диска:
15 мая 2020
Издатель (лейбл):
Носитель:
WEB
Формат:
PCM
Тип рипа:
tracks
Контейнер:
FLAC (*.flac)
Количество каналов:
2.0
Разрядность/ЧД:
24/96
Битрейт аудио:
lossless
Время звучания:
00:31:24
Наличие сканов:
только обложка
Страна-производитель диска (релиза):
USA
Релизёр (источник):
M0p94ok
Лог проверки качества
foobar2000 1.6.2 / Dynamic Range Meter 1.1.1
log date: 2021-06-20 13:18:25

--------------------------------------------------------------------------------
Analyzed: Pasquale Grasso / Solo Bud Powell
--------------------------------------------------------------------------------

DR         Peak         RMS     Duration Track
--------------------------------------------------------------------------------
DR12      -1.12 dB   -14.84 dB      3:03 01-Parisian Thoroughfare
DR9       -1.12 dB   -12.06 dB      3:27 02-Bouncing with Bud
DR9       -1.12 dB   -12.29 dB      2:34 03-Glass Enclosure
DR12      -1.12 dB   -14.57 dB      3:01 04-Oblivion
DR11      -1.12 dB   -13.85 dB      2:58 05-Hallucinations
DR8       -1.12 dB   -12.32 dB      2:51 06-Dusk in Sandi
DR10      -1.12 dB   -12.36 dB      3:10 07-Dance of the Infidels
DR9       -1.12 dB   -11.91 dB      3:13 08-So Sorry Please
DR12      -2.79 dB   -18.38 dB      3:29 09-I'll Keep Loving You
DR9       -1.12 dB   -11.85 dB      3:33 10-Celia
--------------------------------------------------------------------------------

Number of tracks:  10
Official DR value: DR10

Samplerate:        96000 Hz
Channels:          2
Bits per sample:   24
Bitrate:           2116 kbps
Codec:             FLAC
================================================================================
No seeders - write personal message to M0p94ok. Any questions - support@pro-jazz.com.
Нет сидеров - пишите в личку M0p94ok. Есть вопросы - support@pro-jazz.com
13:28
67
Нет комментариев. Ваш будет первым!