Поиск

1973 Enrico Rava - Katcharpari (2017) {MPS} [24-88.2]

1973 Enrico Rava - Katcharpari (2017) {MPS} [24-88.2]
Дата записи диска:
10 января 1973
Место записи:
Milan, Italy
Дата переиздания диска:
11 августа 2017
Издатель (лейбл):
Битрейт аудио:
lossless
Доп. инфо:

• Формат записи | Источник записи: [TR24][OF]
• Наличие водяных знаков: Нет
• Год издания релиза: 1973/2017
• Продолжительность: 00:38:14
• Источник: internet
• WEB релиз: ссылка
• Контейнер: FLAC (*.flac)
• Тип рипа: tracks
• Разрядность: 24/88,2
• Формат: PCM
• Количество каналов: 2.0
• Наличие сканов: front

Лог проверки качества
foobar2000 1.4.2 / Dynamic Range Meter 1.1.1
log date: 2021-03-24 10:18:53

--------------------------------------------------------------------------------
Analyzed: Enrico Rava / Katcharpari
--------------------------------------------------------------------------------

DR         Peak         RMS     Duration Track
--------------------------------------------------------------------------------
DR10      -3.37 dB   -18.19 dB      2:02 01-Bunny's Pie
DR11      -2.37 dB   -15.42 dB      6:10 02-Trial No. 5
DR12      -1.33 dB   -17.26 dB      9:03 03-Dimenticare Stanca
DR11      -1.62 dB   -15.52 dB      4:11 04-Katcharpari
DR11      -2.27 dB   -15.68 dB      5:51 05-Fluid Connection
DR12      -1.17 dB   -16.03 dB      9:27 06-Cheerin' Cherry
DR11      -5.57 dB   -20.42 dB      1:30 07-Peace
--------------------------------------------------------------------------------

Number of tracks:  7
Official DR value: DR11

Samplerate:        88200 Hz
Channels:          2
Bits per sample:   24
Bitrate:           2520 kbps
Codec:             FLAC
================================================================================
No seeders - write personal message to M0p94ok. Any questions - support@pro-jazz.com.
Нет сидеров - пишите в личку M0p94ok. Есть вопросы - support@pro-jazz.com
13:12
59
Нет комментариев. Ваш будет первым!