Поиск

1968 Benny Baily and his Orchestra - The Balkan in My Soul (2014) {MPS, Edel} [24-88.2]

1968 Benny Baily and his Orchestra - The Balkan in My Soul (2014) {MPS, Edel} [24-88.2]
Стили:
Дата записи диска:
1 января 1968
Место записи:
Deutsche Grammophon Studio, Munich, Germany
Издатель (лейбл):
Битрейт аудио:
lossless
Доп. инфо:

• Формат записи | Источник записи: [TR24][OF]
• Наличие водяных знаков: Нет
• Год издания релиза: 2014
• Продолжительность: 00:36:07
• Источник: internet
• WEB релиз: ссылка
• Контейнер: FLAC (*.flac)
• Тип рипа: tracks
• Разрядность: 24/88,2
• Формат: PCM
• Количество каналов: 2.0
• Наличие сканов: front

Лог проверки качества
foobar2000 1.4.2 / Dynamic Range Meter 1.1.1
log date: 2021-03-24 10:16:00

--------------------------------------------------------------------------------
Analyzed: Benny Baily and his Orchestra / The Balkan in My Soul
--------------------------------------------------------------------------------

DR         Peak         RMS     Duration Track
--------------------------------------------------------------------------------
DR10      -1.28 dB   -14.72 dB      3:09 01-6 + 3 in Macedonia
DR10      -2.27 dB   -16.14 dB      2:59 02-I Remember Sarajevo
DR9       -3.55 dB   -15.86 dB      4:10 03-Hassan Effendi
DR11      -2.08 dB   -18.13 dB      3:08 04-Macedonian Ballad
DR11      -1.67 dB   -15.60 dB      2:48 05-South Balkan Express
DR10      -1.48 dB   -15.06 dB      2:55 06-Blue Adriatic
DR10      -4.62 dB   -17.01 dB      3:42 07-Belgrade Bells
DR10      -2.10 dB   -16.05 dB      2:28 08-Adriatic Sunset
DR10      -4.54 dB   -17.76 dB      2:50 09-The Bridge of Mostar
DR9       -3.91 dB   -15.67 dB      2:32 10-The Sofisticated Gipsy
DR9       -1.44 dB   -13.93 dB      2:29 11-Sailing to the Island
DR9       -3.90 dB   -16.10 dB      2:59 12-Zamira
--------------------------------------------------------------------------------

Number of tracks:  12
Official DR value: DR10

Samplerate:        88200 Hz
Channels:          2
Bits per sample:   24
Bitrate:           2711 kbps
Codec:             FLAC
================================================================================
No seeders - write personal message to M0p94ok. Any questions - support@pro-jazz.com.
Нет сидеров - пишите в личку M0p94ok. Есть вопросы - support@pro-jazz.com
19:16
55
Нет комментариев. Ваш будет первым!