Поиск

2021 Behn Gillece - Still Doing Our Thing {Posi-Tone} [24-88.2]

2021 Behn Gillece - Still Doing Our Thing {Posi-Tone} [24-88.2]
Дата записи диска:
9 августа - 12 августа 2020
Место записи:
Acoustic Recording, Brooklyn, NY
Дата издания диска:
19 марта 2021
Издатель (лейбл):
Битрейт аудио:
lossless
Доп. инфо:

В то время как многим кажется, что джазовая сцена эпохи пандемии потемнела или закрылась, Posi-Tone здесь, чтобы заверить слушателей, что мы «все еще делаем свое дело». Преодолевая звуковой барьер с вдохновенным чувством цели, восходящая звезда виброфонист Бен Гиллеес ведет своих достойных участников на захватывающее свидание квартета с блестящими выступлениями. В составе группы - пианист Арт Хирахара, басист Борис Козлов и барабанщик Руди Ройстон. От вступительного залпа до последнего «ура» музыкальная программа остается мелодически прямой, элегантно лиричной и явно намекает на современную джазовую чувственность с жесткими свингующими акцентами. "Still Doing Our Thing", сочетающий в себе удивительное сочетание талантов и запоминающуюся коллекцию оригинальных композиций, захватывающе интересен и наверняка доставит яркие моменты сильного восторга поклонникам джаза во всем мире.

• Формат записи | Источник записи: [TR24][OF]
• Наличие водяных знаков: Нет
• Год издания релиза: 2021
• Продолжительность: 00:56:34
• Источник: internet
• WEB релиз: ссылка
• Контейнер: FLAC (*.flac)
• Тип рипа: tracks
• Разрядность: 24/88,2
• Формат: PCM
• Количество каналов: 2.0
• Наличие сканов: front

Лог проверки качества
foobar2000 1.4.2 / Dynamic Range Meter 1.1.1
log date: 2021-03-24 10:15:36

--------------------------------------------------------------------------------
Analyzed: Behn Gillece / Still Doing Our Thing
--------------------------------------------------------------------------------

DR         Peak         RMS     Duration Track
--------------------------------------------------------------------------------
DR9       -0.98 dB   -10.99 dB      5:31 01-Extraction
DR9       -0.98 dB   -12.50 dB      5:00 02-Rattles
DR9       -0.98 dB   -11.51 dB      4:53 03-Still Doing Our Thing
DR12      -0.98 dB   -15.74 dB      5:21 04-Blue Sojourn
DR9       -0.98 dB   -12.23 dB      4:59 05-Glad To Be Back
DR10      -0.98 dB   -13.44 dB      5:40 06-Outnumbered
DR8       -0.98 dB   -10.70 dB      6:46 07-Event Horizon
DR9       -0.98 dB   -12.20 dB      5:22 08-Back To Abnormal
DR9       -0.98 dB   -12.31 dB      5:15 09-Going On Well
DR9       -0.98 dB   -12.82 dB      7:49 10-Don't Despair
--------------------------------------------------------------------------------

Number of tracks:  10
Official DR value: DR9

Samplerate:        88200 Hz
Channels:          2
Bits per sample:   24
Bitrate:           2740 kbps
Codec:             FLAC
================================================================================
No seeders - write personal message to M0p94ok. Any questions - support@pro-jazz.com.
Нет сидеров - пишите в личку M0p94ok. Есть вопросы - support@pro-jazz.com
18:40
76
Нет комментариев. Ваш будет первым!