Поиск

1977 Chuck Mangione - Feels So Good (2020) {A&M} [24-96]

1977 Chuck Mangione - Feels So Good (2020) {A&M} [24-96]
Место записи:
Kendun Recorders, Burbank, CA
Дата издания диска:
8 декабря 1977
Издатель (лейбл):
Битрейт аудио:
lossless
Доп. инфо:

• Формат записи | Источник записи: [TR24][OF]
• Наличие водяных знаков: Нет
• Год издания релиза: 1977 (2020)
• Продолжительность: 00:45:51
• Источник: internet
• WEB релиз: ссылка
• Контейнер: FLAC (*.flac)
• Тип рипа: tracks
• Разрядность: 24/96
• Формат: PCM
• Количество каналов: 2.0
• Наличие сканов: front

Лог проверки качества
foobar2000 1.4.2 / Dynamic Range Meter 1.1.1
log date: 2021-03-28 19:53:01

--------------------------------------------------------------------------------
Analyzed: Chuck Mangione / Feels So Good
--------------------------------------------------------------------------------

DR         Peak         RMS     Duration Track
--------------------------------------------------------------------------------
DR9       -0.20 dB   -11.10 dB      9:41 01-Feels So Good
DR9       -0.20 dB   -10.59 dB     10:09 02-Maui-Waui
DR9       -0.20 dB   -11.03 dB      2:06 03-Theme From "Side Street"
DR9       -0.20 dB   -11.09 dB      6:26 04-Hide & Seek (Ready Or Not Here I Come)
DR10      -0.20 dB   -13.54 dB     10:53 05-Last Dance
DR10      -0.20 dB   -13.17 dB      6:37 06-The XIth Commandment
--------------------------------------------------------------------------------

Number of tracks:  6
Official DR value: DR9

Samplerate:        96000 Hz
Channels:          2
Bits per sample:   24
Bitrate:           2972 kbps
Codec:             FLAC
================================================================================
No seeders - write personal message to M0p94ok. Any questions - support@pro-jazz.com.
Нет сидеров - пишите в личку M0p94ok. Есть вопросы - support@pro-jazz.com
17:50
55
17:52