Поиск

1977 Om - Rautionaha (2019) {Japo, ECM} [24-96]

1977 Om - Rautionaha (2019) {Japo, ECM} [24-96]
Дата записи диска:
1 декабря 1976
Место записи:
Tonstudio Bauer, Ludwigsburg, Germany
Дата издания диска:
1 марта 1977
Издатель (лейбл):
Номер по каталогу:
JAPO 60016
Носитель:
WEB
Формат:
PCM
Тип рипа:
tracks
Контейнер:
FLAC (*.flac)
Количество каналов:
2.0
Разрядность/ЧД:
24/96
Битрейт аудио:
lossless
Время звучания:
00:47:02
Наличие сканов:
только обложка
Страна-производитель диска (релиза):
Germany
Релизёр (источник):
M0p94ok

1. For Ursi 09:59
2. Stephanie 12:03
3. Song For My Lady 11:16
4. Rautionaha 13:44

Состав:
  • Bass – Bobby Burri
  • Drums, Percussion – Fredy Studer
  • Engineer – Martin Wieland
  • Guitar – Christy Doran
  • Layout – Dieter Bonhorst
  • Producer – Thomas Stöwsand
  • Soprano Saxophone, Tenor Saxophone, Bass Clarinet, Percussion – Urs Leimgruber
Лог проверки качества
foobar2000 1.6.2 / Dynamic Range Meter 1.1.1
log date: 2021-06-19 17:09:50

--------------------------------------------------------------------------------
Analyzed: Om / Rautionaha
--------------------------------------------------------------------------------

DR         Peak         RMS     Duration Track
--------------------------------------------------------------------------------
DR12      -0.70 dB   -14.21 dB     10:00 01-For Ursi
DR12      -2.16 dB   -17.40 dB     12:03 02-Stephanie
DR12      -2.40 dB   -17.81 dB     11:17 03-Song For My Lady
DR11      -1.10 dB   -14.48 dB     13:44 04-Rautionaha
--------------------------------------------------------------------------------

Number of tracks:  4
Official DR value: DR12

Samplerate:        96000 Hz
Channels:          2
Bits per sample:   24
Bitrate:           2995 kbps
Codec:             FLAC
================================================================================
Приватный:
Да (DHT отключён)
Размер:
972.10 Мб (1,019,320,021 байт) » файлов: 6
Участники:
7 раздают, 0 качают (7 участников всего)
Внешние участники:
--- [ Обновить ]
17:38
616
Нет комментариев. Ваш будет первым!