Поиск

2021 Diego Rivera - Indigenous {Posi-Tone} [24-88.2]

2021 Diego Rivera - Indigenous {Posi-Tone} [24-88.2]
Дата записи диска:
4 июня 2019
Место записи:
Acoustic Recording, Brooklyn, NY
Дата издания диска:
29 января 2021
Издатель (лейбл):
Номер по каталогу:
PR8215
Битрейт аудио:
lossless
Доп. инфо:

Экстраординарный руководитель оркестра и саксофонист Диего Ривера исследует "коренные" мультикультурные корни нашей человеческой семьи в своем втором релизе для Posi-Tone Records. Благодаря программе захватывающих оригинальных композиций, нескольким вкусным каверам и специальным выступлениям в качестве гостя виртуоза трубы Этьена Шарля, вся эта сессия стремительно переходит в действие и сияет яркими моментами с самого начала. Также на мероприятии состоится звездная ритм-секция пианистки Хелен Сунг, басиста Бориса Козлова и барабанщика Дональда Эдвардса. Благодаря глубокой эмоциональности этого музыкального предложения Диего Ривера заметно продвинул свое намерение и выражение на новый уровень, и острота этих выступлений побудит джазовых энтузиастов повсюду глубже погрузиться в послание «коренных народов» с изумлением и восторгом.

Формат записи/Источник записи: [TR24][OF]
Год издания/переиздания диска: 2021
Издатель (лейбл): Posi-Tone Records
Продолжительность: 01:02:00
Наличие сканов в содержимом раздачи: Нет

Контейнер: FLAC (*.flac)
Тип рипа: tracks
Разрядность: 24/88,2
Количество каналов: 2.0

Источник (релизер): bandcamp

Лог проверки качества
foobar2000 1.4.1 / Dynamic Range Meter 1.1.1
log date: 2021-01-29 21:22:50

--------------------------------------------------------------------------------
Analyzed: Diego Rivera / Indigenous
--------------------------------------------------------------------------------

DR         Peak         RMS     Duration Track
--------------------------------------------------------------------------------
DR9       -0.98 dB   -11.20 dB      4:22 01-Marabi
DR8       -0.98 dB   -10.09 dB      5:31 02-Indigenous
DR9       -0.98 dB   -12.37 dB      5:05 03-The Secret Life Of Plants
DR8       -0.98 dB   -10.31 dB      4:04 04-Sombras Del Pasado
DR8       -0.98 dB   -11.53 dB      5:26 05-Asta Ta Malakia Sou
DR8       -0.98 dB   -10.12 dB      6:35 06-Atzlán
DR9       -0.98 dB   -11.98 dB      5:49 07-Sabor A Mi
DR8       -0.98 dB   -10.85 dB      4:39 08-BLM Plaza
DR8       -0.98 dB   -11.18 dB      4:45 09-Nefeli
DR8       -0.98 dB   -10.75 dB      5:32 10-Melina Maria
DR8       -0.98 dB   -10.55 dB      5:24 11-Purpose
DR8       -0.98 dB   -11.64 dB      4:56 12-Shir LaShalom
--------------------------------------------------------------------------------

Number of tracks:  12
Official DR value: DR8

Samplerate:        88200 Hz
Channels:          2
Bits per sample:   24
Bitrate:           2794 kbps
Codec:             FLAC
================================================================================
No seeders - write personal message to M0p94ok. Any questions - support@pro-jazz.com.
Нет сидеров - пишите в личку M0p94ok. Есть вопросы - support@pro-jazz.com
12:33
74
Нет комментариев. Ваш будет первым!