Вы используете незарегистрированную версию компонента "Вкладки"!

Поиск

2020 Narada Michael Walden - IMMORTALITY {Quarto Valley} [24-96]

2020 Narada Michael Walden - IMMORTALITY {Quarto Valley} [24-96]
Стили:
Место записи:
Tarpan Studios
Дата издания диска:
7 августа 2020
Носитель:
WEB
Формат:
PCM
Тип рипа:
tracks
Контейнер:
FLAC (*.flac)
Количество каналов:
2.0
Разрядность/ЧД:
24/96
Битрейт аудио:
lossless
Время звучания:
00:33:48
Наличие сканов:
только обложка
Страна-производитель диска (релиза):
USA
Релизёр (источник):
M0p94ok
Лог проверки качества
foobar2000 1.6.2 / Dynamic Range Meter 1.1.1
log date: 2021-06-19 10:27:12

--------------------------------------------------------------------------------
Analyzed: Narada Michael Walden / IMMORTALITY
--------------------------------------------------------------------------------

DR         Peak         RMS     Duration Track
--------------------------------------------------------------------------------
DR7       -0.30 dB    -9.02 dB      5:23 01-Aretha Dances in Heaven
DR6       -0.30 dB    -7.41 dB      5:43 02-The Real Baptism
DR7       -0.30 dB    -8.49 dB      2:49 03-Michael Anthony Kadillac Walden
DR7       -0.30 dB   -10.90 dB      3:30 04-IMMORTALITY
DR10      -0.30 dB   -12.00 dB      5:12 05-Horace Silver
DR8       -0.30 dB   -10.28 dB      2:46 06-The Poor Shall Inherit the Earth
DR8       -0.30 dB   -10.43 dB      3:43 07-We Can Live Forever
DR11      -0.30 dB   -14.49 dB      4:40 08-IMMORTALITY, Pt. 2
--------------------------------------------------------------------------------

Number of tracks:  8
Official DR value: DR8

Samplerate:        96000 Hz
Channels:          2
Bits per sample:   24
Bitrate:           2749 kbps
Codec:             FLAC
================================================================================
Any questions - support@pro-jazz.com. Есть вопросы - support@pro-jazz.com
10:54
95
Нет комментариев. Ваш будет первым!