Поиск

1954 Bing Crosby - Selections From Irving Berlin's White Christmas {Geffen} [24-96]

1954 Bing Crosby - Selections From Irving Berlin's White Christmas {Geffen} [24-96]
Стили:
Издатель (лейбл):
Битрейт аудио:
lossless
Доп. инфо:

• Формат записи | Источник записи: [TR24][OF]
• Наличие водяных знаков: Нет
• Год издания релиза: 1954
• Продолжительность: 00:29:32
• Источник: internet
• WEB релиз: ссылка
• Контейнер: FLAC (*.flac)
• Тип рипа: tracks
• Разрядность: 24/96
• Формат: PCM
• Количество каналов: 2.0
• Наличие сканов: front

Лог проверки качества
foobar2000 1.4.2 / Dynamic Range Meter 1.1.1
log date: 2021-03-28 09:34:08

--------------------------------------------------------------------------------
Analyzed: Bing Crosby / Selections From Irving Berlin's White Christmas (1-6)
          Danny Kaye / Selections From Irving Berlin's White Christmas (7-8)
          Peggy Lee / Selections From Irving Berlin's White Christmas (9-10)
--------------------------------------------------------------------------------

DR         Peak         RMS     Duration Track
--------------------------------------------------------------------------------
DR9       -4.06 dB   -16.41 dB      2:50 01-The Old Man / Gee, I Wish I Was Back In The Army
DR11      -4.49 dB   -18.23 dB      2:41 04-Snow (Single Version)
DR8       -3.73 dB   -14.56 dB      3:51 05-Blue Skies/Mandy
DR12      -4.91 dB   -19.15 dB      3:06 07-Count Your Blessings Instead Of Sheep
DR12      -4.58 dB   -18.98 dB      2:58 09-What Can You Do With A General?
DR8       -4.93 dB   -16.17 dB      3:18 10-White Christmas (1954 Single Version)
DR12      -3.99 dB   -18.49 dB      2:36 03-The Best Things Happen While You're Dancing
DR10      -3.49 dB   -17.52 dB      2:43 06-Choreography
DR11      -3.70 dB   -17.62 dB      2:27 02-Sisters (Single Version)
DR11      -4.37 dB   -19.33 dB      3:02 08-Love, You Didn't Do Right By Me (Single Version)
--------------------------------------------------------------------------------

Number of tracks:  10
Official DR value: DR10

Samplerate:        96000 Hz
Channels:          2
Bits per sample:   24
Bitrate:           2440 kbps
Codec:             FLAC
================================================================================
No seeders - write personal message to M0p94ok. Any questions - support@pro-jazz.com.
Нет сидеров - пишите в личку M0p94ok. Есть вопросы - support@pro-jazz.com
10:06
65
Нет комментариев. Ваш будет первым!