Поиск

1978 Quincy Jones - Sounds... And Stuff Like That! (2020) {A&M} [24-96]

1978 Quincy Jones - Sounds... And Stuff Like That! (2020) {A&M} [24-96]
Место записи:
A & R Recording, New York, NY; Cherokee Recording Studios, Los Angeles, CA; Sound Ideas, New York, NY; Westlake II, Los Angeles, CA
Дата издания диска:
1 января 1978
Издатель (лейбл):
Битрейт аудио:
lossless
Релизёр (источник):
Pun40l9
Доп. инфо:

Формат записи/Источник записи: [TR24][OF]
Издание: Remastered
Год издания/переиздания диска: 1978/2020
Продолжительность: 00:35:45
Наличие сканов в содержимом раздачи: Нет

Контейнер: FLAC (*.flac)
Тип рипа: tracks
Разрядность: 24/96
Количество каналов: 2.0

Источник (релизер): HDTracks

Лог проверки качества
foobar2000 1.4.3 / Dynamic Range Meter 1.1.1
log date: 2021-03-07 21:23:35

--------------------------------------------------------------------------------
Analyzed: Quincy Jones / Sounds... And Stuff Like That!
--------------------------------------------------------------------------------

DR         Peak         RMS     Duration Track
--------------------------------------------------------------------------------
DR10      -0.20 dB   -11.49 dB      6:17 01-Stuff Like That
DR10      -0.20 dB   -11.75 dB      3:32 02-I'm Gonna Miss You In The Morning
DR8       -0.20 dB   -10.29 dB      5:16 03-Love I Never Had It So Good
DR9       -0.20 dB   -11.31 dB      6:45 04-Tell Me A Bedtime Story
DR9       -0.20 dB   -12.09 dB      4:09 05-Love Me By Name
DR8       -0.20 dB   -10.50 dB      5:26 06-Superwoman (Where Were You When I Needed You)
DR8       -0.20 dB   -10.75 dB      4:24 07-Takin It To The Streets
--------------------------------------------------------------------------------

Number of tracks:  7
Official DR value: DR9

Samplerate:        96000 Hz
Channels:          2
Bits per sample:   24
Bitrate:           3241 kbps
Codec:             FLAC
================================================================================
No seeders - write personal message to M0p94ok. Any questions - support@pro-jazz.com.
Нет сидеров - пишите в личку M0p94ok. Есть вопросы - support@pro-jazz.com
20:52
57
Нет комментариев. Ваш будет первым!