Поиск

2019 Marc Copland, Joey Baron, Drew Gress - And I Love Her {Illusions Mirage} [24-44.1]

2019 Marc Copland, Joey Baron, Drew Gress - And I Love Her {Illusions Mirage} [24-44.1]
Дата записи диска:
1 августа - 30 августа 2017
Место записи:
The Samurai Hotel, New York City, NY, USA
Дата издания диска:
18 октября 2019
Носитель:
WEB
Формат:
PCM
Тип рипа:
tracks
Контейнер:
FLAC (*.flac)
Количество каналов:
2.0
Битрейт аудио:
lossless
Время звучания:
01:06:59
Наличие сканов:
только обложка
Страна-производитель диска (релиза):
USA
Релизёр (источник):
Barbo$$
Лог проверки качества
foobar2000 1.6.2 / Dynamic Range Meter 1.1.1
log date: 2021-06-18 15:06:55

--------------------------------------------------------------------------------
Analyzed: Marc Copland, Joey Baron, Drew Gress / And I Love Her
--------------------------------------------------------------------------------

DR         Peak         RMS     Duration Track
--------------------------------------------------------------------------------
DR13      -0.80 dB   -16.95 dB      6:20 01-Afro Blue
DR11      -0.70 dB   -15.29 dB      8:20 02-Cantaloupe Island
DR14      -1.71 dB   -20.46 dB      7:21 03-Figment
DR13      -2.60 dB   -19.04 dB      5:45 04-Might Have Been
DR14      -1.87 dB   -19.72 dB      8:11 05-Love Letter
DR10      -0.73 dB   -13.51 dB     10:40 06-Day and Night
DR15      -0.78 dB   -19.16 dB      6:43 07-And I Love Her
DR13      -0.70 dB   -15.86 dB      4:29 08-Mitzi & Jonny
DR11      -0.77 dB   -15.05 dB      9:15 09-You Do Something to Me
--------------------------------------------------------------------------------

Number of tracks:  9
Official DR value: DR13

Samplerate:        44100 Hz
Channels:          2
Bits per sample:   24
Bitrate:           1527 kbps
Codec:             FLAC
================================================================================
No seeders - write personal message to M0p94ok. Any questions - support@pro-jazz.com.
Нет сидеров - пишите в личку M0p94ok. Есть вопросы - support@pro-jazz.com
17:35
62
Нет комментариев. Ваш будет первым!