Поиск

2020 John Coltrane - Simply ... Coltrane! {Jube Legends} [24-48]

2020 John Coltrane - Simply ... Coltrane! {Jube Legends} [24-48]
Дата издания диска:
26 марта 2020
Битрейт аудио:
lossless
Доп. инфо:

Формат записи/Источник записи: [TR24][OF]
Издание: Remastered
Год издания/переиздания диска: 2020
Издатель (лейбл): Jube Legends
Продолжительность: 03:29:35
Наличие сканов в содержимом раздачи: Нет

Контейнер: FLAC (*.flac)
Тип рипа: tracks
Разрядность: 24/48
Количество каналов: 2.0

Источник (релизер): Qobuz

Лог проверки качества
foobar2000 1.4.3 / Dynamic Range Meter 1.1.1
log date: 2021-03-27 07:37:39

--------------------------------------------------------------------------------
Analyzed: John Coltrane / Simply ... Coltrane!
--------------------------------------------------------------------------------

DR         Peak         RMS     Duration Track
--------------------------------------------------------------------------------
DR10      -0.01 dB   -12.23 dB      5:39 01-Pristine
DR10      -0.01 dB   -13.49 dB      6:58 02-Tippin'
DR10      -0.01 dB   -11.36 dB      2:45 03-El toro valiante
DR10      -0.01 dB   -10.96 dB      3:19 04-Midriff
DR9       -0.01 dB   -10.71 dB      3:21 05-Ain't life grand?
DR10      -0.01 dB   -12.21 dB      4:09 06-The outer world
DR10      -0.01 dB   -11.57 dB      3:33 07-Late Date
DR12      -0.01 dB   -15.18 dB      7:39 08-Aisha
DR10      -0.01 dB   -11.81 dB     10:54 09-Dahomey Dance
DR10      -0.01 dB   -13.37 dB     18:18 10-Olé
DR13      -0.01 dB   -16.02 dB      7:30 11-Afro Blue
DR11      -0.01 dB   -13.12 dB      4:57 12-Blue Train
DR11      -0.01 dB   -12.87 dB      3:46 13-Greensleeves
DR12      -0.01 dB   -13.94 dB      4:14 14-In a sentimental mood
DR14      -0.01 dB   -17.16 dB      5:57 15-Body and soul
DR12      -0.01 dB   -13.87 dB      5:29 16-Mexican Hyride: I love you
DR14      -0.01 dB   -18.05 dB      5:11 17-Cinderella: Do I love you?
DR13      -0.01 dB   -15.84 dB      7:57 18-Love me tonight: Lover
DR12      -0.01 dB   -15.39 dB      2:44 19-Mississippi: It's easy to remember
DR12      -0.01 dB   -17.02 dB      4:39 20-Face the music: Soft light and sweet music
DR12      -0.01 dB   -13.97 dB      4:55 21-Belle of Yukon: Like someone in love
DR11      -0.01 dB   -13.57 dB      4:36 22-The Merry Widow: Vilja
DR11      -0.01 dB   -14.30 dB      5:12 23-Keep 'em flying: You don't know what love Is
DR11      -0.01 dB   -13.43 dB      3:12 24-Nancy
DR12      -0.01 dB   -15.13 dB      6:00 25-Trane's Slow Blues
DR12      -0.01 dB   -14.04 dB      5:22 26-Soul Eyes
DR13      -0.01 dB   -15.90 dB      5:30 27-Mating call
DR14      -0.01 dB   -18.55 dB      8:57 28-Out of nowhere (Number one) [Live]
DR14      -0.01 dB   -16.84 dB      7:27 29-Improvisation (Live)
DR14      -0.27 dB   -17.78 dB      7:08 30-Woody and you (Live)
DR14      -0.01 dB   -18.40 dB      8:53 31-What's new & Autumn in New York (Live)
DR13      -0.01 dB   -15.74 dB      8:36 32-Rifftide (Live)
DR14      -0.01 dB   -17.95 dB     10:12 33-Out of nowhere (Number two) [Live]
DR14      -0.01 dB   -17.00 dB      4:52 34-Seven lively arts: Ev'ry time we say goodbye (Live)
--------------------------------------------------------------------------------

Number of tracks:  34
Official DR value: DR12

Samplerate:        48000 Hz
Channels:          2
Bits per sample:   24
Bitrate:           771 kbps
Codec:             FLAC
================================================================================
No seeders - write personal message to M0p94ok. Any questions - support@pro-jazz.com.
Нет сидеров - пишите в личку M0p94ok. Есть вопросы - support@pro-jazz.com
14:40
66
Нет комментариев. Ваш будет первым!