Поиск

2017 Laszlo Gardony - Serious Play (solo piano) {Sunnyside} [24-96]

2017 Laszlo Gardony - Serious Play (solo piano) {Sunnyside} [24-96]
Дата издания диска:
14 июля 2017
Издатель (лейбл):
Носитель:
WEB
Формат:
PCM
Тип рипа:
tracks
Контейнер:
FLAC (*.flac)
Количество каналов:
2.0
Разрядность/ЧД:
24/96
Битрейт аудио:
lossless
Время звучания:
00:38:03
Наличие сканов:
только обложка
Страна-производитель диска (релиза):
USA
Релизёр (источник):
Barbo$$
Лог проверки качества
foobar2000 1.6.2 / Dynamic Range Meter 1.1.1
log date: 2021-06-18 14:05:44

--------------------------------------------------------------------------------
Analyzed: Laszlo Gardony / Serious Play (solo piano)
--------------------------------------------------------------------------------

DR         Peak         RMS     Duration Track
--------------------------------------------------------------------------------
DR14      -2.80 dB   -23.17 dB      6:17 01-Georgia On My Mind
DR11      -2.98 dB   -19.58 dB      7:38 02-Naima
DR12      -0.71 dB   -16.86 dB      3:47 03-Serious Play
DR15      -4.36 dB   -25.64 dB      2:00 04-Night Light
DR12      -1.67 dB   -19.29 dB      3:34 05-Forward Motion
DR15      -1.88 dB   -26.25 dB      1:27 06-Watchful Through The Night
DR12      -0.71 dB   -19.52 dB      2:38 07-Folk At Heart
DR11      -0.71 dB   -15.48 dB      5:37 08-Truth To Power
DR16      -4.06 dB   -25.48 dB      2:37 09-Reverberations
DR13     -10.29 dB   -29.34 dB      2:30 10-Over The Rainbow
--------------------------------------------------------------------------------

Number of tracks:  10
Official DR value: DR13

Samplerate:        96000 Hz
Channels:          2
Bits per sample:   24
Bitrate:           1932 kbps
Codec:             FLAC
================================================================================
No seeders - write personal message to M0p94ok. Any questions - support@pro-jazz.com.
Нет сидеров - пишите в личку M0p94ok. Есть вопросы - support@pro-jazz.com
14:21
72
Нет комментариев. Ваш будет первым!