Поиск

2020 Jon Lipscomb - Pantagruelian Quintet {Jon Lipscomb} [24-96]

2020 Jon Lipscomb - Pantagruelian Quintet {Jon Lipscomb} [24-96]
Дата издания диска:
1 мая 2020
Битрейт аудио:
lossless
Доп. инфо:

Формат записи/Источник записи: [TR24][OF]
Наличие водяных знаков: Нет
Год издания/переиздания диска: 2020
Издатель (лейбл): Jon Lipscomb
Продолжительность: 00:33:05
Наличие сканов в содержимом раздачи: Только обложка альбома

Контейнер: FLAC (*.flac)
Тип рипа: tracks
Разрядность: 24/96
Формат: PCM
Количество каналов: 2.0

Источник (релизер): bandcamp

Лог проверки качества
foobar2000 1.6.2 / Dynamic Range Meter 1.1.1
log date: 2021-03-27 11:02:56

--------------------------------------------------------------------------------
Analyzed: Jon Lipscomb / Pantagruelian Quintet
--------------------------------------------------------------------------------

DR         Peak         RMS     Duration Track
--------------------------------------------------------------------------------
DR10      -0.50 dB   -13.40 dB     13:40 01-Kill, Fly Faster, Love
DR10      -0.50 dB   -13.56 dB      8:01 02-Confected in Disdain Pt 1
DR12      -0.50 dB   -16.46 dB     11:25 03-Confected in Disdain Pt 2
--------------------------------------------------------------------------------

Number of tracks:  3
Official DR value: DR11

Samplerate:        96000 Hz
Channels:          2
Bits per sample:   24
Bitrate:           2527 kbps
Codec:             FLAC
================================================================================
No seeders - write personal message to M0p94ok. Any questions - support@pro-jazz.com.
Нет сидеров - пишите в личку M0p94ok. Есть вопросы - support@pro-jazz.com
11:09
58
Нет комментариев. Ваш будет первым!