Поиск

1984 Dave Valentin - Kalahari (2021) {GRP} [24-96]

1984 Dave Valentin - Kalahari (2021) {GRP} [24-96]
Издатель (лейбл):
Битрейт аудио:
lossless
Доп. инфо:

Формат записи/Источник записи: [TR24][OF]
Издание: Remastered
Год издания/переиздания диска: 1984/2021
Продолжительность: 00:39:11
Наличие сканов в содержимом раздачи: Нет

Контейнер: FLAC (*.flac)
Тип рипа: tracks
Разрядность: 24/96
Количество каналов: 2.0

Источник (релизер): HDTracks

Лог проверки качества
foobar2000 1.6.2 / Dynamic Range Meter 1.1.1
log date: 2021-01-28 10:46:33

--------------------------------------------------------------------------------
Analyzed: Dave Valentin / Kalahari
--------------------------------------------------------------------------------

DR         Peak         RMS     Duration Track
--------------------------------------------------------------------------------
DR11      -0.20 dB   -13.67 dB      5:02 01-Eclipse
DR12      -0.20 dB   -14.42 dB      4:51 02-Monkey Buttons
DR12      -0.20 dB   -13.96 dB      3:34 03-Encendido (On Fire)
DR12      -0.73 dB   -17.07 dB      5:31 04-Fall
DR12      -0.20 dB   -14.58 dB      3:22 05-Reel Life
DR12      -0.20 dB   -14.60 dB      4:45 06-September Nights
DR15      -1.67 dB   -22.33 dB      2:54 07-Kalahari (An Improvisation)
DR13      -0.84 dB   -18.24 dB      4:22 08-My Coqui
DR13      -0.20 dB   -15.21 dB      5:04 09-New Beginnings
--------------------------------------------------------------------------------

Number of tracks:  9
Official DR value: DR12

Samplerate:        96000 Hz
Channels:          2
Bits per sample:   24
Bitrate:           2983 kbps
Codec:             FLAC
================================================================================
No seeders - write personal message to M0p94ok. Any questions - support@pro-jazz.com.
Нет сидеров - пишите в личку M0p94ok. Есть вопросы - support@pro-jazz.com
15:26
61
Нет комментариев. Ваш будет первым!