Поиск

2021 David Helbock, Sebastian Studnitzky, Arne Jansen - The New Cool {ACT Music} [24-96]

2021 David Helbock, Sebastian Studnitzky, Arne Jansen - The New Cool {ACT Music} [24-96]
Стили:
Дата издания диска:
26 марта 2021
Издатель (лейбл):
Битрейт аудио:
lossless
Доп. инфо:

Формат записи/Источник записи: [TR24][OF]
Наличие водяных знаков: Нет
Год издания: 2021
Продолжительность: 00:53:34
Наличие сканов в содержимом раздачи: Буклет PDF
Контейнер: FLAC (*.flac)
Тип рипа: tracks
Разрядность: 24/96
Формат: PCM
Количество каналов: 2.0
Источник (релизер): highresaudio.com

Лог проверки качества
foobar2000 1.4.8 / Dynamic Range Meter 1.1.1
log date: 2021-03-26 21:08:19

--------------------------------------------------------------------------------
Analyzed: David Helbock, Sebastian Studnitzky, Arne Jansen / The New Cool
--------------------------------------------------------------------------------

DR         Peak         RMS     Duration Track
--------------------------------------------------------------------------------
DR12      -0.73 dB   -20.40 dB      3:49 01-I Remember Clifford
DR9       -0.71 dB   -13.59 dB      4:28 02-Pandemic of Ignorance
DR13      -3.43 dB   -20.73 dB      3:20 03-Op. 28, No. 4: Prelude in E Minor
DR10      -0.71 dB   -14.25 dB      4:28 04-Truth
DR13      -4.90 dB   -22.33 dB      4:47 05-Hymn for Sophie Scholl
DR11      -0.71 dB   -17.58 dB      5:09 06-Time After Time
DR9       -0.71 dB   -13.08 dB      5:03 07-Solidarity Rock
DR10      -5.55 dB   -20.46 dB      5:41 08-I Feel Free
DR11      -4.80 dB   -19.05 dB      3:20 09-On the Shore
DR11      -8.30 dB   -23.08 dB      3:48 10-Korona Solitude #1
DR11      -0.71 dB   -15.43 dB      4:41 11-Angel Eyes
DR10      -4.17 dB   -18.88 dB      5:08 12-Surrounded by the Night
--------------------------------------------------------------------------------

Number of tracks:  12
Official DR value: DR11
Samplerate:        96000 Hz
Channels:          2
Bits per sample:   24
Bitrate:           2511 kbps
Codec:             FLAC
================================================================================
No seeders - write personal message to M0p94ok. Any questions - support@pro-jazz.com.
Нет сидеров - пишите в личку M0p94ok. Есть вопросы - support@pro-jazz.com
15:16
67
Нет комментариев. Ваш будет первым!