Поиск

2021 Dr. Lonnie Smith - Breathe {Blue Note} [24-96]

2021 Dr. Lonnie Smith - Breathe {Blue Note} [24-96]
Стили:
Дата издания диска:
26 марта 2021
Издатель (лейбл):
Битрейт аудио:
lossless
Доп. инфо:

Формат записи/Источник записи: [TR24][OF]
Наличие водяных знаков: Нет
Год издания: 2021
Продолжительность: 01:03:47
Наличие сканов в содержимом раздачи: Только обложка альбома
Контейнер: FLAC (*.flac)
Тип рипа: tracks
Разрядность: 24/96
Формат: PCM
Количество каналов: 2.0
Источник (релизер): highresaudio.com

Лог проверки качества
foobar2000 1.4.8 / Dynamic Range Meter 1.1.1
log date: 2021-03-26 18:27:32

--------------------------------------------------------------------------------
Analyzed: Dr. Lonnie Smith / Breathe
--------------------------------------------------------------------------------

DR         Peak         RMS     Duration Track
--------------------------------------------------------------------------------
DR9       -0.35 dB   -12.40 dB      7:45 01-Why Can't We Live Together (feat. Iggy Pop)
DR9       -0.20 dB   -11.58 dB      7:25 02-Bright Eyes (Live)
DR9       -0.35 dB   -13.58 dB      7:34 03-Too Damn Hot (Live)
DR13      -0.35 dB   -15.76 dB      9:44 04-Track 9 (Live)
DR9       -0.35 dB   -14.20 dB     12:05 05-World Weeps (Live)
DR8       -0.35 dB   -13.64 dB      8:20 06-Pilgrimage (feat. Alicia Olatuja) (Live)
DR9       -0.35 dB   -13.17 dB      4:23 07-Epistrophy (Live)
DR10      -0.20 dB   -13.34 dB      6:37 08-Sunshine Superman (feat. Iggy Pop)
--------------------------------------------------------------------------------

Number of tracks:  8
Official DR value: DR9
Samplerate:        96000 Hz
Channels:          2
Bits per sample:   24
Bitrate:           3124 kbps
Codec:             FLAC
================================================================================
No seeders - write personal message to M0p94ok. Any questions - support@pro-jazz.com.
Нет сидеров - пишите в личку M0p94ok. Есть вопросы - support@pro-jazz.com
13:53
59
Нет комментариев. Ваш будет первым!