Поиск

1966 Eugen Cicero - Cicero's Chopin (2017) {MPS} [24-88.2]

1966 Eugen Cicero - Cicero's Chopin (2017) {MPS} [24-88.2]
Дата записи диска:
12 декабря 1965
Место записи:
Villingen, Germany
Дата переиздания диска:
1 декабря 2017
Издатель (лейбл):
Битрейт аудио:
lossless
Доп. инфо:

Формат записи/Источник записи: [TR24][OF]
Издание: Remastered
Год издания/переиздания диска: 1966/2017
Продолжительность: 00:34:39
Наличие сканов в содержимом раздачи: Нет

Контейнер: FLAC (*.flac)
Тип рипа: tracks
Разрядность: 24/88,2
Количество каналов: 2.0

Источник (релизер): HIGHRESAUDIO

Лог проверки качества
foobar2000 1.4.3 / Dynamic Range Meter 1.1.1
log date: 2021-03-24 22:57:24

--------------------------------------------------------------------------------
Analyzed: Eugen Cicero / Cicero's Chopin
--------------------------------------------------------------------------------

DR         Peak         RMS     Duration Track
--------------------------------------------------------------------------------
DR14      -5.13 dB   -22.40 dB      4:12 01-Grande Valse Brillante Es-Dur, Op. 18
DR14      -2.83 dB   -20.59 dB      8:29 02-Prelude A-Dur, Op. 28 No.7
DR14      -3.85 dB   -20.91 dB      5:41 03-Valse Cis-Moll, Op. 64, No. 2
DR13      -3.44 dB   -20.13 dB      3:34 04-Prelude C-Moll, Op. 28, No. 20
DR15      -2.12 dB   -19.97 dB      5:38 05-Etude E-Dur, Op. 10, No. 3
DR14      -1.46 dB   -20.83 dB      7:08 06-Prelude E-Moll, Op. 28, No.4
--------------------------------------------------------------------------------

Number of tracks:  6
Official DR value: DR14

Samplerate:        88200 Hz
Channels:          2
Bits per sample:   24
Bitrate:           2368 kbps
Codec:             FLAC
================================================================================
No seeders - write personal message to M0p94ok. Any questions - support@pro-jazz.com.
Нет сидеров - пишите в личку M0p94ok. Есть вопросы - support@pro-jazz.com
13:34
64
Нет комментариев. Ваш будет первым!