Вы используете незарегистрированную версию компонента "Вкладки"!

Поиск

2020 Matt Bianco & New Cool Collective - High Anxiety {Matt Entertainment} [24-48]

2020 Matt Bianco & New Cool Collective - High Anxiety {Matt Entertainment} [24-48]
Место записи:
Electric Monkey, Amsterdam, Holland
Дата издания диска:
27 ноября 2020
Битрейт аудио:
lossless
Доп. инфо:

Формат записи/Источник записи: [TR24][OF]
Наличие водяных знаков: Нет
Год издания/переиздания диска: 2020
Издатель (лейбл): Matt Entertainment & New Cool Collective
Продолжительность: 00:38:25
Наличие сканов в содержимом раздачи: Только обложка альбома

Контейнер: FLAC (*.flac)
Тип рипа: tracks
Разрядность: 24/48
Формат: PCM
Количество каналов: 2.0

Источник (релизер): pic

Лог проверки качества
foobar2000 1.6.2 / Dynamic Range Meter 1.1.1
log date: 2020-11-28 08:52:36

--------------------------------------------------------------------------------
Analyzed: Matt Bianco / High Anxiety
--------------------------------------------------------------------------------

DR         Peak         RMS     Duration Track
--------------------------------------------------------------------------------
DR9       -0.50 dB   -10.25 dB      3:24 01-High Anxiety
DR9       -0.50 dB   -11.24 dB      4:00 02-The Big Mouth
DR10      -0.50 dB   -12.02 dB      3:31 03-When the Ghosts Come out to Play
DR9       -0.50 dB   -10.36 dB      4:09 04-The Spice of Life
DR8       -0.50 dB    -9.60 dB      3:43 05-I Won't Be Sad to See You Go
DR9       -0.50 dB   -11.62 dB      3:07 06-Unconditional
DR8       -0.50 dB   -10.31 dB      5:05 07-Grains of Sand
DR9       -0.50 dB   -10.39 dB      3:29 08-I'm Travelling
DR10      -0.50 dB   -12.24 dB      4:02 09-It's the Same Old Story
DR9       -0.50 dB   -11.46 dB      3:54 10-If You Feel Like Dancing
--------------------------------------------------------------------------------

Number of tracks:  10
Official DR value: DR9

Samplerate:        48000 Hz
Channels:          2
Bits per sample:   24
Bitrate:           1724 kbps
Codec:             FLAC
================================================================================
Any questions - support@pro-jazz.com. Есть вопросы - support@pro-jazz.com
11:36
80
Нет комментариев. Ваш будет первым!