Поиск

2021 Alan Broadbent Trio - Hot Club {NorthStar Music} [24-44.1]

2021 Alan Broadbent Trio - Hot Club {NorthStar Music} [24-44.1]
Стили:
Битрейт аудио:
lossless
Доп. инфо:

Формат записи/Источник записи: [TR24][OF]
Год издания/переиздания диска: 2021
Издатель (лейбл): NorthStar Music Publishing Ltd
Продолжительность: 00:58:09
Наличие сканов в содержимом раздачи: Нет

Контейнер: FLAC (*.flac)
Тип рипа: tracks
Разрядность: 24/44,1
Количество каналов: 2.0

Источник (релизер): HIGHRESAUDIO

Лог проверки качества
foobar2000 1.6.2 / Dynamic Range Meter 1.1.1
log date: 2021-01-22 22:38:16

--------------------------------------------------------------------------------
Analyzed: Alan Broadbent / Hot Club
--------------------------------------------------------------------------------

DR         Peak         RMS     Duration Track
--------------------------------------------------------------------------------
DR7       -0.40 dB    -8.84 dB      4:08 01-Aurevoir
DR8       -0.40 dB    -9.30 dB      3:05 02-Bon Chance
DR8       -0.40 dB    -9.11 dB      3:09 03-Red Roses
DR8       -0.40 dB    -9.24 dB      3:35 04-Good Days
DR8       -0.40 dB    -8.99 dB      5:00 05-Le Duc
DR9       -0.40 dB   -10.76 dB      2:34 06-Sunlight
DR8       -0.40 dB    -9.38 dB      3:07 07-Evening Light
DR7       -0.40 dB    -8.74 dB      5:04 08-Enchante
DR8       -0.40 dB    -9.25 dB      5:13 09-St Jacques
DR7       -0.40 dB    -8.60 dB      4:27 10-Cherie
DR9       -0.40 dB    -9.95 dB      3:11 11-Good Times
DR8       -0.40 dB    -9.66 dB      3:10 12-Midnight
DR8       -0.40 dB    -9.19 dB      3:15 13-Hot Sauce
DR9       -0.40 dB   -10.05 dB      3:14 14-Hop Hoppin
DR9       -0.40 dB   -10.86 dB      2:38 15-Champs Elysee
DR8       -0.40 dB    -9.09 dB      3:28 16-Black Pearl
--------------------------------------------------------------------------------

Number of tracks:  16
Official DR value: DR8

Samplerate:        44100 Hz
Channels:          2
Bits per sample:   24
Bitrate:           1600 kbps
Codec:             FLAC
================================================================================
No seeders - write personal message to M0p94ok. Any questions - support@pro-jazz.com.
Нет сидеров - пишите в личку M0p94ok. Есть вопросы - support@pro-jazz.com
00:07
87
Нет комментариев. Ваш будет первым!