Вы используете незарегистрированную версию компонента "Вкладки"!

Поиск

1961 Cannonball Adderley Quintet - Plus (2021) {Music Trax} [24-96]

1961 Cannonball Adderley Quintet - Plus (2021) {Music Trax} [24-96]
Дата записи диска:
11 мая 1961
Место записи:
Bill Grauer Productions Inc., New York, NY; Plaza Sound Studios, NY
Дата переиздания диска:
3 февраля 2021
Издатель (лейбл):
Битрейт аудио:
lossless
Доп. инфо:

Формат записи/Источник записи: [TR24][OF]
Издание: Remastered
Год издания/переиздания диска: 1961/2021
Жанр: Jazz
Издатель (лейбл): Music Trax
Продолжительность: 00:42:03
Наличие сканов в содержимом раздачи: Нет

Контейнер: FLAC (*.flac)
Тип рипа: tracks
Разрядность: 24/96
Количество каналов: 2.0

Источник (релизер): bandcamp

Лог проверки качества
foobar2000 1.4.3 / Dynamic Range Meter 1.1.1
log date: 2021-03-16 06:42:21

--------------------------------------------------------------------------------
Analyzed: Cannonball Adderley Quintet / Plus
--------------------------------------------------------------------------------

DR         Peak         RMS     Duration Track
--------------------------------------------------------------------------------
DR10      -1.01 dB   -14.48 dB      8:08 01-Arriving Soon
DR10      -1.01 dB   -14.03 dB      6:25 02-Well, You Needn't
DR10      -1.01 dB   -13.87 dB      6:55 03-New Delhi
DR10      -1.01 dB   -14.17 dB      6:57 04-Winetone
DR11      -1.01 dB   -14.56 dB      7:01 05-Star Eyes
DR11      -1.01 dB   -14.21 dB      6:41 06-Lisa
--------------------------------------------------------------------------------

Number of tracks:  6
Official DR value: DR10

Samplerate:        96000 Hz
Channels:          2
Bits per sample:   24
Bitrate:           3090 kbps
Codec:             FLAC
================================================================================
Any questions - support@pro-jazz.com. Есть вопросы - support@pro-jazz.com
00:03
97
Нет комментариев. Ваш будет первым!