Поиск

1975 Grover Washington Jr. - Mister Magic (2020) {Uni Motown} [24-96]

1975 Grover Washington Jr. - Mister Magic (2020) {Uni Motown} [24-96]
Стили:
Битрейт аудио:
lossless
Доп. инфо:

Формат записи/Источник записи: [TR24][OF]
Издание: Remastered
Год издания/переиздания диска: 1975/2020
Издатель (лейбл): Uni Motown
Продолжительность: 00:33:01
Наличие сканов в содержимом раздачи: Нет

Контейнер: FLAC (*.flac)
Тип рипа: tracks
Разрядность: 24/96
Количество каналов: 2.0

Источник (релизер): HDTracks

Лог проверки качества
foobar2000 1.4.3 / Dynamic Range Meter 1.1.1
log date: 2021-03-04 22:38:57

--------------------------------------------------------------------------------
Analyzed: Grover Washington Jr. / Mister Magic
--------------------------------------------------------------------------------

DR         Peak         RMS     Duration Track
--------------------------------------------------------------------------------
DR14      -0.60 dB   -16.85 dB     12:22 01-Earth Tones
DR16      -0.70 dB   -19.74 dB      5:34 02-Passion Flower
DR16      -0.40 dB   -17.57 dB      9:01 03-Mister Magic
DR14      -0.55 dB   -16.85 dB      6:06 04-Black Frost
--------------------------------------------------------------------------------

Number of tracks:  4
Official DR value: DR15

Samplerate:        96000 Hz
Channels:          2
Bits per sample:   24
Bitrate:           2825 kbps
Codec:             FLAC
================================================================================
No seeders - write personal message to M0p94ok. Any questions - support@pro-jazz.com.
Нет сидеров - пишите в личку M0p94ok. Есть вопросы - support@pro-jazz.com
23:55
53
Нет комментариев. Ваш будет первым!