Вы используете незарегистрированную версию компонента "Вкладки"!

Поиск

2021 Amit Friedman - Unconditional Love {Origin} [24-88.2]

2021 Amit Friedman - Unconditional Love {Origin} [24-88.2]
Стили:
Битрейт аудио:
lossless
Доп. инфо:

• Формат записи | Источник записи: [TR24][OF]
• Наличие водяных знаков: Нет
• Год издания релиза: 2021
• Лейбл: Origin Records
• Продолжительность: 00:54:13
• Источник: internet
• WEB релиз: ссылка
• Контейнер: FLAC (*.flac)
• Тип рипа: tracks
• Разрядность: 24/88,2
• Формат: PCM
• Количество каналов: 2.0
• Наличие сканов: front

Лог проверки качества
foobar2000 1.4.2 / Dynamic Range Meter 1.1.1
log date: 2021-03-24 10:15:07

--------------------------------------------------------------------------------
Analyzed: Amit Friedman / Unconditional Love
--------------------------------------------------------------------------------

DR         Peak         RMS     Duration Track
--------------------------------------------------------------------------------
DR10       0.00 dB   -11.48 dB      8:10 01-Home At Last
DR11       0.00 dB   -13.78 dB      4:49 02-Mal-Mal
DR11       0.00 dB   -13.03 dB      7:23 03-Name Droppin'
DR11      -0.67 dB   -14.49 dB      6:43 04-Unconditional Love
DR9       -0.76 dB   -12.43 dB      5:23 05-Rill Rool
DR10       0.00 dB   -11.59 dB      5:20 06-Blues for Jackito
DR11       0.00 dB   -13.34 dB      2:56 07-Alma
DR10       0.00 dB   -13.01 dB      6:27 08-Sunset
DR10       0.00 dB   -11.65 dB      3:31 09-Stride by Stride
DR9       -0.30 dB   -12.27 dB      3:31 10-Junk
--------------------------------------------------------------------------------

Number of tracks:  10
Official DR value: DR10

Samplerate:        88200 Hz
Channels:          2
Bits per sample:   24
Bitrate:           2797 kbps
Codec:             FLAC
================================================================================
Any questions - support@pro-jazz.com. Есть вопросы - support@pro-jazz.com
23:30
78
Нет комментариев. Ваш будет первым!