Поиск

1976 Volker Kriegel - Topical Harvest (2017) {MPS} [24-88.2]

1976 Volker Kriegel - Topical Harvest (2017) {MPS} [24-88.2]
Стили:
Дата переиздания диска:
2 июня 2017
Издатель (лейбл):
Битрейт аудио:
lossless
Доп. инфо:

• Формат записи | Источник записи: [TR24][OF]
• Наличие водяных знаков: Нет
• Год издания релиза: 1976 (2017)
• Продолжительность: 00:39:50
• Источник: internet
• WEB релиз: ссылка
• Контейнер: FLAC (*.flac)
• Тип рипа: tracks
• Разрядность: 24/88,2
• Формат: PCM
• Количество каналов: 2.0
• Наличие сканов: front

Лог проверки качества
foobar2000 1.4.2 / Dynamic Range Meter 1.1.1
log date: 2021-03-23 08:46:21

--------------------------------------------------------------------------------
Analyzed: Volker Kriegel/ Topical Harvest (1-2)
          Rainer BrГјninghaus / Topical Harvest (3-10)
--------------------------------------------------------------------------------

DR         Peak         RMS     Duration Track
--------------------------------------------------------------------------------
DR11      -0.72 dB   -14.00 dB      4:29 01-Hypnotic Pignose
DR11      -2.94 dB   -15.80 dB      1:02 08-Tribut
DR11      -1.60 dB   -14.12 dB      4:41 02-Circus Gambet
DR11      -2.33 dB   -16.81 dB      3:37 03-Hallo Albert
DR12      -1.94 dB   -17.33 dB      3:08 04-Remember Gereba
DR10      -1.57 dB   -13.89 dB      3:49 05-Sister Matic
DR11      -0.96 dB   -15.75 dB      6:07 06-Oriente
DR9       -2.08 dB   -14.04 dB      5:37 07-Bahia Next Year
DR11      -0.98 dB   -15.61 dB      4:36 09-Let's Say Windmill
DR9       -4.36 dB   -16.53 dB      2:44 10-Saturnalia
--------------------------------------------------------------------------------

Number of tracks:  10
Official DR value: DR11

Samplerate:        88200 Hz
Channels:          2
Bits per sample:   24
Bitrate:           2523 kbps
Codec:             FLAC
================================================================================
No seeders - write personal message to M0p94ok. Any questions - support@pro-jazz.com.
Нет сидеров - пишите в личку M0p94ok. Есть вопросы - support@pro-jazz.com
23:27
61
Нет комментариев. Ваш будет первым!