Поиск

1964 Louis Armstrong - Hello, Dolly! (2020) {Verve Reissues} [24-96]

1964 Louis Armstrong - Hello, Dolly! (2020) {Verve Reissues} [24-96]
Стили:
Дата издания диска:
25 октября 1964
Издатель (лейбл):
Битрейт аудио:
lossless
Доп. инфо:

Формат записи/Источник записи: [TR24][OF]
Издание: Remastered
Год издания/переиздания диска: 1964/2020
Продолжительность: 00:35:52
Наличие сканов в содержимом раздачи: Нет

Контейнер: FLAC (*.flac)
Тип рипа: tracks
Разрядность: 24/96
Количество каналов: 2.0

Источник (релизер): HDTracks

Лог проверки качества
foobar2000 1.4.3 / Dynamic Range Meter 1.1.1
log date: 2021-03-06 23:38:36

--------------------------------------------------------------------------------
Analyzed: Louis Armstrong / Hello, Dolly!
--------------------------------------------------------------------------------

DR         Peak         RMS     Duration Track
--------------------------------------------------------------------------------
DR10      -0.31 dB   -11.60 dB      2:24 01-Hello, Dolly!
DR11      -0.31 dB   -13.67 dB      2:19 02-It's Been A Long, Long Time
DR9       -0.31 dB   -11.39 dB      2:34 03-A Lot Of Livin' To Do
DR10      -0.31 dB   -13.03 dB      4:28 04-A Kiss To Build A Dream On
DR12      -0.31 dB   -14.28 dB      3:38 05-Someday
DR10      -0.31 dB   -12.58 dB      2:30 06-Hey Look Me Over
DR9       -0.31 dB   -12.08 dB      2:10 07-I Still Get Jealous
DR13      -0.31 dB   -15.86 dB      2:56 08-Moon River
DR9       -0.31 dB   -11.86 dB      2:50 09-Be My Life's Companion
DR10      -0.31 dB   -13.60 dB      3:16 10-Blueberry Hill
DR10      -0.31 dB   -13.01 dB      2:14 11-You Are Woman I Am Man
DR11      -0.31 dB   -13.42 dB      4:39 12-Jeepers Creepers
--------------------------------------------------------------------------------

Number of tracks:  12
Official DR value: DR10

Samplerate:        96000 Hz
Channels:          2
Bits per sample:   24
Bitrate:           3170 kbps
Codec:             FLAC
================================================================================
No seeders - write personal message to M0p94ok. Any questions - support@pro-jazz.com.
Нет сидеров - пишите в личку M0p94ok. Есть вопросы - support@pro-jazz.com
20:55
36
Нет комментариев. Ваш будет первым!