Поиск

2021 Enric Peidro & Jonathan Stout - Groove at First Sight {Snibor} [24-44.1]

2021 Enric Peidro & Jonathan Stout - Groove at First Sight {Snibor} [24-44.1]
Стили:
Дата издания диска:
12 марта 2021
Битрейт аудио:
lossless
Доп. инфо:

• Формат записи | Источник записи: [TR24][OF]
• Наличие водяных знаков: Нет
• Год издания релиза: 2021
• Лейбл: Snibor Records
• Продолжительность: 00:42:38
• Источник: internet
• WEB релиз: ссылка
• Контейнер: FLAC (*.flac)
• Тип рипа: tracks
• Разрядность: 24/44,1
• Формат: WAV (flac.ape.wv)
• Количество каналов: 2.0
• Наличие сканов: front

Лог проверки качества
foobar2000 1.4.2 / Dynamic Range Meter 1.1.1
log date: 2021-03-14 21:41:34

--------------------------------------------------------------------------------
Analyzed: Enric Peidro & Jonathan Stout / Groove at First Sight
--------------------------------------------------------------------------------

DR         Peak         RMS     Duration Track
--------------------------------------------------------------------------------
DR10      -1.00 dB   -13.20 dB      3:29 01-Shivers
DR9       -1.00 dB   -13.31 dB      4:14 02-Surrender Dear
DR10      -1.00 dB   -13.25 dB      3:39 03-Soft Winds
DR11      -1.03 dB   -13.12 dB      3:36 04-Squatty Roo
DR10      -1.02 dB   -13.20 dB      3:46 05-Six Appeal
DR10      -1.00 dB   -12.85 dB      3:06 06-Sunday
DR11      -1.02 dB   -13.22 dB      3:49 07-El Salon de Gutbucket
DR10      -1.00 dB   -13.15 dB      4:05 08-On the Sunny Side of the Street
DR10      -1.00 dB   -13.37 dB      3:07 09-Jacquet in the Box
DR10      -1.03 dB   -13.25 dB      4:29 10-If I Had You
DR10      -1.11 dB   -13.43 dB      2:51 11-Coquette
DR11      -1.01 dB   -13.66 dB      2:27 12-Esquire Jump
--------------------------------------------------------------------------------

Number of tracks:  12
Official DR value: DR10

Samplerate:        44100 Hz
Channels:          2
Bits per sample:   24
Bitrate:           1580 kbps
Codec:             FLAC
================================================================================
No seeders - write personal message to M0p94ok. Any questions - support@pro-jazz.com.
Нет сидеров - пишите в личку M0p94ok. Есть вопросы - support@pro-jazz.com
20:17
51
Нет комментариев. Ваш будет первым!