Поиск

1973 Tremble Kids - Midnight Session (2017) {MPS} [24-88.2]

1973 Tremble Kids - Midnight Session (2017) {MPS} [24-88.2]
Стили:
Дата переиздания диска:
29 декабря 2017
Издатель (лейбл):
Номер по каталогу:
15404
Битрейт аудио:
lossless
Доп. инфо:

• Формат записи | Источник записи: [TR24][OF]
• Наличие водяных знаков: Нет
• Год издания релиза: 2017
• Лейбл: MPS
• Продолжительность: 00:41:58
• Источник: internet
• WEB релиз: ссылка
• Контейнер: FLAC (*.flac)
• Тип рипа: tracks
• Разрядность: 24/88,2
• Формат: PCM
• Количество каналов: 2.0
• Наличие сканов: front

Лог проверки качества
foobar2000 1.4.2 / Dynamic Range Meter 1.1.1
log date: 2021-03-23 08:45:28

--------------------------------------------------------------------------------
Analyzed: Tremble Kids / Midnight Session
--------------------------------------------------------------------------------

DR         Peak         RMS     Duration Track
--------------------------------------------------------------------------------
DR11      -1.73 dB   -17.51 dB      4:20 01-Big Butter and Eggman
DR10      -0.98 dB   -16.70 dB      4:50 02-Someday You'll Be Sorry
DR10      -2.27 dB   -15.10 dB      2:47 03-Clarinet Marmelade
DR11      -2.65 dB   -18.45 dB      5:03 04-I Surrender Dear / I'm Confessin' / Rocking Chair
DR12      -0.68 dB   -17.03 dB      3:51 05-Black Forest Special
DR11      -2.21 dB   -15.81 dB      3:49 06-Hotter Than That
DR10      -2.82 dB   -16.80 dB      5:15 07-After Midnight Blues
DR12      -2.26 dB   -17.58 dB      5:02 08-A Monday Date
DR13      -2.19 dB   -18.65 dB      7:02 09-I've Got the World on a String
--------------------------------------------------------------------------------

Number of tracks:  9
Official DR value: DR11

Samplerate:        88200 Hz
Channels:          2
Bits per sample:   24
Bitrate:           2636 kbps
Codec:             FLAC
================================================================================
No seeders - write personal message to M0p94ok. Any questions - support@pro-jazz.com.
Нет сидеров - пишите в личку M0p94ok. Есть вопросы - support@pro-jazz.com
09:57
40
Нет комментариев. Ваш будет первым!