Поиск

1980 Dave Grusin - Mountain Dance (2021) {GRP} [24-96]

1980 Dave Grusin - Mountain Dance (2021) {GRP} [24-96]
Стили:
Издатель (лейбл):
Номер по каталогу:
GRP 95072
Битрейт аудио:
lossless
Доп. инфо:

Формат записи/Источник записи: [TR24][OF]
Издание: Remastered
Год издания/переиздания диска: 1980/2021
Продолжительность: 00:39:21
Наличие сканов в содержимом раздачи: Нет

Контейнер: FLAC (*.flac)
Тип рипа: tracks
Разрядность: 24/96
Количество каналов: 2.0

Источник (релизер): HDTracks

Лог проверки качества
foobar2000 1.4.6 / Dynamic Range Meter 1.1.1
log date: 2021-03-17 23:38:43

--------------------------------------------------------------------------------
Analyzed: Dave Grusin / Mountain Dance
--------------------------------------------------------------------------------

DR         Peak         RMS     Duration Track
--------------------------------------------------------------------------------
DR13      -0.20 dB   -14.61 dB      4:33 01-Rag Bag
DR12      -0.20 dB   -14.56 dB      5:57 02-Friends And Strangers
DR13      -0.20 dB   -15.61 dB      4:50 03-City Lights
DR14      -0.20 dB   -18.63 dB      4:40 04-Rondo - "If You Hold Out Your Hand"
DR12      -0.20 dB   -15.20 dB      6:16 05-Mountain Dance
DR15      -2.08 dB   -23.09 dB      3:11 06-Thanksong
DR11      -0.20 dB   -13.78 dB      5:09 07-Captain Caribe
DR12      -0.20 dB   -14.33 dB      5:01 08-Either Way
--------------------------------------------------------------------------------

Number of tracks:  8
Official DR value: DR13

Samplerate:        96000 Hz
Channels:          2
Bits per sample:   24
Bitrate:           3036 kbps
Codec:             FLAC
================================================================================
No seeders - write personal message to M0p94ok. Any questions - support@pro-jazz.com.
Нет сидеров - пишите в личку M0p94ok. Есть вопросы - support@pro-jazz.com
08:53
78
Нет комментариев. Ваш будет первым!