Поиск

2021 Greg Skaff - Polaris {SMK Jazz} [24-96]

2021 Greg Skaff - Polaris {SMK Jazz} [24-96]
Стили:
Дата издания диска:
19 марта 2021
Битрейт аудио:
lossless
Доп. инфо:

Формат записи/Источник записи: [TR24][OF]
Год издания/переиздания диска: 2021
Издатель (лейбл): SMK Jazz
Продолжительность: 00:44:56
Наличие сканов в содержимом раздачи: Нет

Контейнер: FLAC (*.flac)
Тип рипа: tracks
Разрядность: 24/96
Количество каналов: 2.0

Источник (релизер): HIGHRESAUDIO

Лог проверки качества
foobar2000 1.4.3 / Dynamic Range Meter 1.1.1
log date: 2021-03-22 06:55:05

--------------------------------------------------------------------------------
Analyzed: Greg Skaff / Polaris
--------------------------------------------------------------------------------

DR         Peak         RMS     Duration Track
--------------------------------------------------------------------------------
DR12      -1.01 dB   -15.08 dB      4:29 01-Old Devil Moon
DR11      -1.01 dB   -13.87 dB      3:55 02-Angelica
DR11      -1.02 dB   -14.40 dB      5:11 03-Little Waltz (Duo)
DR11      -1.01 dB   -13.97 dB      3:49 04-Paris Eyes
DR12      -1.52 dB   -15.48 dB      5:23 05-Yesterdays
DR12      -1.02 dB   -14.53 dB      4:31 06-Mr. R.C.
DR13      -1.02 dB   -16.84 dB      4:18 07-Lady of the Lavender Mist
DR11      -1.00 dB   -13.32 dB      3:17 08-Polaris
DR12      -1.02 dB   -15.27 dB      5:03 09-Little Waltz (Trio)
DR10      -1.02 dB   -13.25 dB      3:05 10-Caminando
DR11      -1.02 dB   -13.62 dB      2:00 11-Ill Wind
--------------------------------------------------------------------------------

Number of tracks:  11
Official DR value: DR11

Samplerate:        96000 Hz
Channels:          2
Bits per sample:   24
Bitrate:           2363 kbps
Codec:             FLAC
================================================================================
No seeders - write personal message to M0p94ok. Any questions - support@pro-jazz.com.
Нет сидеров - пишите в личку M0p94ok. Есть вопросы - support@pro-jazz.com
17:09
78
Нет комментариев. Ваш будет первым!