Поиск

2021 Øyvind Kristiansen & Jonas Kilmork Vemøy - Hymns of Compassion {Kirkelig Kulturverksted} [24-96]

2021 Øyvind Kristiansen & Jonas Kilmork Vemøy - Hymns of Compassion {Kirkelig Kulturverksted} [24-96]
Стили:
Дата издания диска:
19 марта 2021
Битрейт аудио:
lossless
Доп. инфо:

Формат записи/Источник записи: [TR24][OF]
Наличие водяных знаков: Нет
Год издания/переиздания диска: 2021
Издатель (лейбл): Kirkelig Kulturverksted
Продолжительность: 00:42:27
Наличие сканов в содержимом раздачи: Только обложка альбома
Источник (релизер): qobuz

Контейнер: FLAC (*.flac)
Тип рипа: tracks
Разрядность: 24/96
Формат: PCM
Количество каналов: 2.0

Лог проверки качества
foobar2000 1.5.1 / Dynamic Range Meter 1.1.1
log date: 2021-03-23 18:05:03

--------------------------------------------------------------------------------
Analyzed: Øyvind Kristiansen / Hymns of Compassion
--------------------------------------------------------------------------------

DR         Peak         RMS     Duration Track
--------------------------------------------------------------------------------
DR12      -1.00 dB   -17.44 dB      4:12 01-Blessed Communion
DR10      -1.00 dB   -15.43 dB      4:21 02-Sacred Head
DR5       -1.00 dB   -11.11 dB      8:11 03-Forsaken
DR7       -1.00 dB   -12.11 dB      4:12 04-Gethsemane
DR9       -1.00 dB   -13.78 dB      6:04 05-A Sigh from a Loving Heart
DR11      -1.00 dB   -16.61 dB      3:38 06-Dying Seeds
DR12      -1.00 dB   -17.09 dB      7:23 07-Hail Thee
DR13      -1.00 dB   -18.32 dB      4:26 08-Truly He was The Son of God
--------------------------------------------------------------------------------

Number of tracks:  8
Official DR value: DR10

Samplerate:        96000 Hz
Channels:          2
Bits per sample:   24
Bitrate:           2437 kbps
Codec:             FLAC
================================================================================
No seeders - write personal message to M0p94ok. Any questions - support@pro-jazz.com.
Нет сидеров - пишите в личку M0p94ok. Есть вопросы - support@pro-jazz.com
17:02
56
Нет комментариев. Ваш будет первым!