Вы используете незарегистрированную версию компонента "Вкладки"!

Поиск

2001 Wayne Horvitz - Sweeter Than The Day {Songlines} [24-88.2]

2001 Wayne Horvitz - Sweeter Than The Day {Songlines} [24-88.2]
Дата записи диска:
1 января 2001
Место записи:
Litho, Seattle, WA
Дата издания диска:
12 марта 2001
Носитель:
WEB
Формат:
PCM
Тип рипа:
tracks
Контейнер:
FLAC (*.flac)
Количество каналов:
2.0
Разрядность/ЧД:
24/88,2
Битрейт аудио:
lossless
Время звучания:
00:57:07
Наличие сканов:
буклет pdf
Страна-производитель диска (релиза):
Canada
Релизёр (источник):
M0p94ok
Доп. инфо:

Sweeter Than the Day - второй релиз акустического воплощения Zony Mash Уэйна Хорвица. (Первой была American Bandstand, впоследствии переизданная как Forever в результате судебного спора с Диком Кларком). Прежде всего, это фантастически звучащая пластинка. Богатые округлые тона исходят от фортепиано Хорвица и шестиструнных и 12-струнных гитар Тимоти Янга, со вкусом оформленных звучным басом Кейта Лоу и ударными Энди Рота. Музыка непринужденная и немного меланхоличная, с многослойной эклектикой в стиле фолк-рок, которая время от времени напоминает о Brian Blade Fellowship. Бодрые темпы свинга действительно возникают на "LTMBBQ" и "In the Lounge", и группа становится довольно взволнованной во время 12-тонного "Irondbound". Но настоящие жемчужины - мягкие, мелодичные, особенно «Баллада Джулиана», «Слаще дня», «Прекрасное число 3» (Тимоти Янга) и «Маленький парад». Снова и снова Zony Mash удается быть одновременно мелодичным и очень угловатым.

https://www.prostudiomasters.com/album/page/1942

Лог проверки качества
foobar2000 1.6.2 / Dynamic Range Meter 1.1.1
log date: 2021-06-22 17:16:10

--------------------------------------------------------------------------------
Analyzed: Wayne Horvitz / Sweeter Than The Day
--------------------------------------------------------------------------------

DR         Peak         RMS     Duration Track
--------------------------------------------------------------------------------
DR13      -2.38 dB   -21.11 dB      4:48 01-in One time and another
DR13      -0.01 dB   -17.12 dB      6:11 02-Julian's Ballad
DR12       0.00 dB   -14.73 dB      6:18 03-LTMBBQ
DR12      -3.46 dB   -18.68 dB      5:06 04-Swtter Than the Day
DR13      -0.03 dB   -18.51 dB      6:29 05-Ironbound
DR11       0.00 dB   -13.60 dB      5:43 06-Waltz from the Oven
DR11       0.00 dB   -13.07 dB      5:30 07-In the Lounge
DR14       0.00 dB   -18.22 dB      5:44 08-The Beautiful Number 3
DR14       0.00 dB   -15.87 dB      6:52 09-The Little Parade
DR15       0.00 dB   -18.72 dB      4:24 10-George's Solo
--------------------------------------------------------------------------------

Number of tracks:  10
Official DR value: DR13

Samplerate:        88200 Hz
Channels:          2
Bits per sample:   24
Bitrate:           2718 kbps
Codec:             FLAC
================================================================================
Any questions - support@pro-jazz.com. Есть вопросы - support@pro-jazz.com
17:25
94
Нет комментариев. Ваш будет первым!