Вы используете незарегистрированную версию компонента "Вкладки"!

Поиск

2021 Giacomo Bondi - Sax Italiano: Italian Acoustic Covers {GBMUSIC} [24-96]

2021 Giacomo Bondi - Sax Italiano: Italian Acoustic Covers {GBMUSIC} [24-96]
Дата издания диска:
2 апреля 2021
Битрейт аудио:
lossless
Доп. инфо:

• Формат записи | Источник записи: [TR24][OF]
• Наличие водяных знаков: Нет
• Год издания релиза: 2021
• Лейбл: GBMUSIC
• Продолжительность: 00:40:06
• Источник: internet
• WEB релиз: ссылка
• Контейнер: FLAC (*.flac)
• Тип рипа: tracks
• Разрядность: 24/96
• Формат: PCM
• Количество каналов: 2.0
• Наличие сканов: front

Лог проверки качества
foobar2000 1.4.2 / Dynamic Range Meter 1.1.1
log date: 2021-04-03 19:05:08

--------------------------------------------------------------------------------
Analyzed: Giacomo Bondi / Sax Italiano: Italian Acoustic Covers
--------------------------------------------------------------------------------

DR         Peak         RMS     Duration Track
--------------------------------------------------------------------------------
DR10      -0.10 dB   -11.08 dB      2:51 01-E la chiamano estate
DR9       -0.10 dB   -10.63 dB      4:29 02-Il cielo in una stanza
DR10      -0.10 dB   -10.96 dB      3:14 03-Io che amo solo te
DR9       -0.10 dB   -11.20 dB      3:59 04-O sole mio
DR8       -0.10 dB    -9.26 dB      4:05 05-Parole Parole
DR8       -0.10 dB    -9.92 dB      3:32 06-Quando Quando
DR9       -0.10 dB   -10.25 dB      3:36 07-Samba em preludio
DR10      -0.10 dB   -10.98 dB      3:30 08-Sapore di sale
DR9       -0.10 dB   -10.29 dB      3:02 09-Volare (nel blu dipinto di blu)
DR9       -0.10 dB   -11.48 dB      2:49 10-Torna a Surriento
DR9       -0.10 dB   -10.59 dB      5:01 11-Senza fine
--------------------------------------------------------------------------------

Number of tracks:  11
Official DR value: DR9

Samplerate:        96000 Hz
Channels:          2
Bits per sample:   24
Bitrate:           2829 kbps
Codec:             FLAC
================================================================================
Any questions - support@pro-jazz.com. Есть вопросы - support@pro-jazz.com
22:08
77
Нет комментариев. Ваш будет первым!