Поиск

1970 Living Jazz - Hot Butter and Soul {RCA, Legacy} [24-192]

1970 Living Jazz - Hot Butter and Soul {RCA, Legacy} [24-192]
Стили:
Место записи:
RCA Studio C, New York City, NY, USA
Дата издания диска:
1 октября 1970
Издатель (лейбл):
Битрейт аудио:
lossless
Доп. инфо:

• Формат записи | Источник записи: [TR24][OF]
• Наличие водяных знаков: Нет
• Год издания релиза: 1970
• Продолжительность: 00:31:28
• Источник: internet
• WEB релиз: ссылка
• Контейнер: FLAC (*.flac)
• Тип рипа: tracks
• Разрядность: 24/192
• Формат: PCM
• Количество каналов: 2.0
• Наличие сканов: front

Лог проверки качества
foobar2000 1.4.2 / Dynamic Range Meter 1.1.1
log date: 2021-04-03 12:33:59

--------------------------------------------------------------------------------
Analyzed: Living Jazz / Hot Butter and Soul
--------------------------------------------------------------------------------

DR         Peak         RMS     Duration Track
--------------------------------------------------------------------------------
DR12      -0.27 dB   -15.27 dB      3:04 01-Walk On By
DR12      -0.59 dB   -15.80 dB      3:35 02-By the Time I Get To Phoenix
DR12      -0.10 dB   -13.72 dB      4:45 03-ABC
DR12      -0.10 dB   -13.36 dB      4:06 04-Get Ready
DR11      -0.10 dB   -13.07 dB      3:29 05-Games People Play
DR11      -0.10 dB   -12.77 dB      3:00 06-It's All In the Game
DR12      -0.10 dB   -13.71 dB      4:35 07-Sweet Buttercup
DR11      -0.10 dB   -12.54 dB      4:54 08-Hyperbolicsyllabicsesquedalymistic
--------------------------------------------------------------------------------

Number of tracks:  8
Official DR value: DR12

Samplerate:        192000 Hz
Channels:          2
Bits per sample:   24
Bitrate:           4787 kbps
Codec:             FLAC
================================================================================
No seeders - write personal message to M0p94ok. Any questions - support@pro-jazz.com.
Нет сидеров - пишите в личку M0p94ok. Есть вопросы - support@pro-jazz.com
00:14
57
Нет комментариев. Ваш будет первым!