Поиск

2019 Youn Woo Park Trio - The Songs of My Guitar {Leeway Music} [24-96]

2019 Youn Woo Park Trio - The Songs of My Guitar {Leeway Music} [24-96]
Стили:
Дата издания диска:
13 апреля 2020
Носитель:
WEB
Формат:
PCM
Тип рипа:
tracks
Контейнер:
FLAC (*.flac)
Количество каналов:
2.0
Разрядность/ЧД:
24/96
Битрейт аудио:
lossless
Время звучания:
00:54:44
Наличие сканов:
только обложка
Страна-производитель диска (релиза):
USA
Релизёр (источник):
M0p94ok
Лог проверки качества
foobar2000 1.6.2 / Dynamic Range Meter 1.1.1
log date: 2021-06-24 13:52:03

--------------------------------------------------------------------------------
Analyzed: Youn Woo Park Trio / The Songs of My Guitar
--------------------------------------------------------------------------------

DR         Peak         RMS     Duration Track
--------------------------------------------------------------------------------
DR12      -0.10 dB   -14.28 dB      6:34 01-Memories of You
DR12      -0.10 dB   -14.69 dB      6:06 02-Cavatina (arr. Y.W. Park)
DR11      -0.10 dB   -13.66 dB      5:24 03-Through the Leaves
DR12      -0.10 dB   -14.70 dB      7:56 04-Forest
DR10      -0.10 dB   -12.59 dB      5:05 05-Recuerdos de la Alhambra (arr. Y.W. Park)
DR13      -0.10 dB   -15.82 dB      6:20 06-You and Me Again
DR11      -0.10 dB   -13.67 dB      5:14 07-5 Bagatelles: 3. Alla Cubana (arr. Y.W. Park)
DR12      -0.10 dB   -15.34 dB      5:52 08-Prelude to a Kiss (arr. Y.W. Park)
DR11      -0.10 dB   -13.94 dB      6:16 09-Can Not Go Back There
--------------------------------------------------------------------------------

Number of tracks:  9
Official DR value: DR12

Samplerate:        96000 Hz
Channels:          2
Bits per sample:   24
Bitrate:           2739 kbps
Codec:             FLAC
================================================================================
No seeders - write personal message to M0p94ok. Any questions - support@pro-jazz.com.
Нет сидеров - пишите в личку M0p94ok. Есть вопросы - support@pro-jazz.com
14:06
57
Нет комментариев. Ваш будет первым!