Поиск

1970 Eugen Cicero - Balkan Rhapsodie (2017) {MPS} [24-88.2]

1970 Eugen Cicero - Balkan Rhapsodie (2017) {MPS} [24-88.2]
Стили:
Дата записи диска:
1 октября 1970
Место записи:
MPS Tonstudio, Villingen, Black Forest
Дата переиздания диска:
1 декабря 2017
Издатель (лейбл):
Номер по каталогу:
15295 CRM 754
Битрейт аудио:
lossless
Доп. инфо:

Формат записи/Источник записи: [TR24][OF]
Издание: Remastered
Год издания/переиздания диска: 1970/2017
Продолжительность: 00:36:26
Наличие сканов в содержимом раздачи: Нет

Контейнер: FLAC (*.flac)
Тип рипа: tracks
Разрядность: 24/88,2
Количество каналов: 2.0

Источник (релизер): HIGHRESAUDIO

Лог проверки качества
foobar2000 1.4.3 / Dynamic Range Meter 1.1.1
log date: 2021-03-25 17:05:24

--------------------------------------------------------------------------------
Analyzed: Eugen Cicero / Balkan Rhapsodie
--------------------------------------------------------------------------------

DR         Peak         RMS     Duration Track
--------------------------------------------------------------------------------
DR12      -2.51 dB   -17.06 dB      4:48 01-Dir gehört mein ganzes Leben
DR12      -1.89 dB   -17.43 dB      4:50 02-Seltener Weizen, seltene Gerste, seltenes Korn
DR12      -1.56 dB   -18.26 dB      4:09 03-Memories of Clausenburg
DR11      -3.12 dB   -18.17 dB      4:36 04-Süßer Klang ertönt
DR12      -4.22 dB   -19.15 dB      4:16 05-Nur ein Mädel gibt es auf der Welt
DR12      -1.87 dB   -16.90 dB      4:15 06-Dort in der Ferne
DR11      -2.21 dB   -18.72 dB      4:55 07-Im Mondschein
DR12      -4.41 dB   -19.23 dB      4:38 08-Der Schlitten eilt
--------------------------------------------------------------------------------

Number of tracks:  8
Official DR value: DR12

Samplerate:        88200 Hz
Channels:          2
Bits per sample:   24
Bitrate:           2546 kbps
Codec:             FLAC
================================================================================
No seeders - write personal message to M0p94ok. Any questions - support@pro-jazz.com.
Нет сидеров - пишите в личку M0p94ok. Есть вопросы - support@pro-jazz.com
17:43
70
Нет комментариев. Ваш будет первым!