Вы используете незарегистрированную версию компонента "Вкладки"!

Поиск

1958 Gil Evans - New Bottle Old Wine (2019) {Blue Note} [24-96]

1958 Gil Evans - New Bottle Old Wine (2019) {Blue Note} [24-96]
Стили:
Издатель (лейбл):
Битрейт аудио:
lossless
Доп. инфо:

Формат записи/Источник записи: [TR24][OF]
Издание: Remastered
Год издания/переиздания диска: 1958/2019
Издатель (лейбл): CM BLUE NOTE (A92)
Продолжительность: 00:38:10
Наличие сканов в содержимом раздачи: Нет

Контейнер: FLAC (*.flac)
Тип рипа: tracks
Разрядность: 24/96
Количество каналов: 2.0

Источник (релизер): Qobuz

Лог проверки качества
foobar2000 1.3.16 / Dynamic Range Meter 1.1.1
log date: 2019-05-03 12:02:17

--------------------------------------------------------------------------------
Analyzed: Gil Evans / New Bottle Old Wine - The Great Jazz Composers Interpreted by Gil Evans and his Orchestra
--------------------------------------------------------------------------------

DR         Peak         RMS     Duration Track
--------------------------------------------------------------------------------
DR13      -0.36 dB   -19.15 dB      5:21 01-St. Louis Blues
DR11      -1.64 dB   -16.94 dB      3:18 02-King Porter Stomp
DR14      -0.20 dB   -19.89 dB      4:37 03-Willow Tree
DR11      -3.09 dB   -18.92 dB      4:32 04-Struttin' With Some Barbecue
DR11      -0.60 dB   -16.03 dB      4:15 05-Lester Leaps In
DR11      -3.06 dB   -20.94 dB      4:05 06-'Round Midnight
DR10      -2.00 dB   -16.76 dB      5:15 07-Manteca
DR12      -3.94 dB   -19.88 dB      6:53 08-Bird Feathers
--------------------------------------------------------------------------------

Number of tracks:  8
Official DR value: DR12

Samplerate:        96000 Hz
Channels:          2
Bits per sample:   24
Bitrate:           2937 kbps
Codec:             FLAC
================================================================================
Any questions - support@pro-jazz.com. Есть вопросы - support@pro-jazz.com
23:33
232
Нет комментариев. Ваш будет первым!