Вы используете незарегистрированную версию компонента "Вкладки"!

Поиск

1959 Louis Armstrong - Satchmo Plays King Oliver (2019) {Audio Fidelity} [24-96]

1959 Louis Armstrong - Satchmo Plays King Oliver (2019) {Audio Fidelity} [24-96]
Стили:
Битрейт аудио:
lossless
Доп. инфо:

Формат записи/Источник записи: [TR24][OF]
Издание: Remastered
Год издания/переиздания диска: 1959/2019
Издатель (лейбл): Audio Fidelity
Продолжительность: 00:44:29
Наличие сканов в содержимом раздачи: Нет

Контейнер: FLAC (*.flac)
Тип рипа: tracks
Разрядность: 24/96
Количество каналов: 2.0

Источник (релизер): Qobuz

Лог проверки качества
foobar2000 1.4.3 / Dynamic Range Meter 1.1.1
log date: 2020-04-25 09:16:24

--------------------------------------------------------------------------------
Analyzed: Louis Armstrong / Satchmo Plays King Oliver
--------------------------------------------------------------------------------

DR         Peak         RMS     Duration Track
--------------------------------------------------------------------------------
DR13      -1.25 dB   -17.65 dB      4:58 01, 01-St. James Infirmary (Gambler's Blues)
DR13      -1.25 dB   -17.22 dB      3:43 02, 02-I Want a Big Butter & Egg Man
DR13      -3.44 dB   -18.27 dB      3:58 03, 03-I Ain't Got Nobody
DR11      -5.67 dB   -19.34 dB      4:05 04, 04-Panama
DR13      -2.33 dB   -17.83 dB      2:38 05, 05-Dr. Jazz
DR11      -1.25 dB   -14.03 dB      3:34 06, 06-Hot Time in the Old Town Tonight
DR13      -1.79 dB   -16.79 dB      4:00 07, 07-Frankie and Johnny
DR13      -1.36 dB   -18.35 dB      4:02 08, 08-I Ain't Gonna Give Nobody None of This Jelly Roll
DR13      -1.24 dB   -16.57 dB      2:50 09, 09-Drop That Sack
DR13      -1.30 dB   -18.03 dB      2:49 10, 10-Jelly Roll Blues
DR12      -2.25 dB   -18.06 dB      4:33 11, 11-Old Kentucky Home
DR13      -1.77 dB   -19.28 dB      3:23 12, 12-Chimes Blues
--------------------------------------------------------------------------------

Number of tracks:  12
Official DR value: DR13

Samplerate:        96000 Hz
Channels:          2
Bits per sample:   24
Bitrate:           2283 kbps
Codec:             FLAC
================================================================================
Any questions - support@pro-jazz.com. Есть вопросы - support@pro-jazz.com
23:51
246
Нет комментариев. Ваш будет первым!