Вы используете незарегистрированную версию компонента "Вкладки"!

Поиск

2020 Irreversible Entaglements - Who Sent You? {International Anthem IARC0031} [24-88,2]

2020 Irreversible Entaglements - Who Sent You? {International Anthem IARC0031} [24-88,2]
Битрейт аудио:
lossless
Доп. инфо:

Формат записи/Источник записи: [TR24][OF]
Наличие водяных знаков: Нет
Год издания/переиздания диска: 2020
Издатель (лейбл): International Anthem / IARC0031
Продолжительность: 00:43:25
Наличие сканов в содержимом раздачи: Только обложка альбома

Контейнер: FLAC (*.flac)
Тип рипа: tracks
Разрядность: 24/88,2
Формат: PCM
Количество каналов: 2.0

Источник (релизер): https://intlanthem.bandcamp.com/album/who-sent-you

Лог проверки качества
foobar2000 1.4.5 / Замер динамического диапазона (DR) 1.1.1
Дата отчёта:  2020-04-30 11:55:36

--------------------------------------------------------------------------------
Анализ:   Irreversible Entanglements / Who Sent You?
--------------------------------------------------------------------------------

DR         Пики         RMS           Продолжительность трека
--------------------------------------------------------------------------------
DR10      -1.00 дБ   -13.12 дБ      7:31 1-The Code Noir / Amina
DR9       -1.00 дБ   -12.99 дБ     14:45 2-Who Sent You – Ritual
DR9       -1.00 дБ   -11.85 дБ      7:59 3-No Más
DR10      -1.00 дБ   -12.10 дБ      8:22 4-Blues Ideology
DR11      -1.00 дБ   -15.23 дБ      4:48 5-Bread Out of Stone
--------------------------------------------------------------------------------

Количество треков: 5
Реальные значения DR: DR10

Частота:   88200 Гц
Каналов:   2
Разрядность:   24
Битрейт:   2377 кбит/с
Кодек:   FLAC
================================================================================
Any questions - support@pro-jazz.com. Есть вопросы - support@pro-jazz.com
07:00
239
Нет комментариев. Ваш будет первым!