Поиск

1957 Quincy Jones - Go West, Man! (2019) {RevOla} [24-44,1]

1957 Quincy Jones - Go West, Man! (2019) {RevOla} [24-44,1]
Стили:
Дата записи диска:
февраль 1957
Дата переиздания диска:
2019
Носитель:
WEB
Формат:
PCM
Тип рипа:
tracks
Контейнер:
FLAC (*.flac)
Количество каналов:
2.0
Разрядность/ЧД:
24/44,1
Битрейт аудио:
lossless
Формат записи/Источник записи:
[TR24][OF]
Время звучания:
00:42:57
Наличие сканов:
только обложка
Наличие водяных знаков:
нет
Страна-производитель диска (релиза):
USA
Треклист:

01. Dancing Pants (Remastered)  03:49
02. Blues Day (Remastered)  04:42
03. Bright Moon (Remastered)  05:20
04. No Bones At All (Remastered)  03:57
05. The Oom Is Blues (Remastered)  05:09
06. Be My Guest (Remastered)  04:29 
07. What's New, We'll Be Togther Again, Time On My Hands, You Go To My Head, Laura (Remastered)  06:19
08. London Derriere (Remastered)  04:06
09. King's Road Blues (Remastered)  05:06

Лог проверки качества
foobar2000 1.3.16 / Dynamic Range Meter 1.1.1
log date: 2019-01-05 18:25:15

--------------------------------------------------------------------------------
Analyzed: Quincy Jones / Go West, Man!
--------------------------------------------------------------------------------

DR         Peak         RMS     Duration Track
--------------------------------------------------------------------------------
DR11      -2.24 dB   -14.83 dB      3:49 01-Dancing Pants (Remastered)
DR12      -2.21 dB   -16.95 dB      4:43 02-Blues Day (Remastered)
DR11      -2.50 dB   -15.35 dB      5:21 03-Bright Moon (Remastered)
DR12      -1.90 dB   -15.52 dB      3:58 04-No Bones At All (Remastered)
DR12      -1.48 dB   -15.63 dB      5:09 05-The Oom Is Blues (Remastered)
DR11      -0.52 dB   -13.64 dB      4:30 06-Be My Guest (Remastered)
DR11      -2.91 dB   -15.44 dB      6:19 07-What's New, We'll Be Togther Again, Time On My Hands, You Go To My Head, Laura (Remastered)
DR14      -0.38 dB   -16.23 dB      4:06 08-London Derriere (Remastered)
DR11      -0.70 dB   -13.91 dB      5:07 09-King's Road Blues (Remastered)
--------------------------------------------------------------------------------

Number of tracks:  9
Official DR value: DR12

Samplerate:        44100 Hz
Channels:          2
Bits per sample:   24
Bitrate:           1213 kbps
Codec:             FLAC
================================================================================
Приватный:
Нет (DHT включён)
Размер:
370.16 Мб (388,142,524 байт) » файлов: 12
Участники:
2 раздают, 0 качают (2 участников всего)
Внешние участники:
--- [ Обновить ]
No seeders - write a personal message to user M0p94ok. Нет сидеров - пишите личное сообщение пользователю M0p94ok.
23:01
18
Нет комментариев. Ваш будет первым!